SHARE
TWEET

Nancy Drew and the Hidden Staircase WEB-DL 720p

dirtyharrys Mar 29th, 2019 70 Never
Not a member of Pastebin yet? Sign Up, it unlocks many cool features!
  1. General
  2. Unique ID                   : 192474621540443129901432505409070726644 (0x90CD4382E32FEC61AB8E45D253AC7DF4)
  3. Complete name               : C:\V0VCTkRhbmR0aGVIaWRkZW5TdGFpcmNhc2U.mkv
  4. Format                      : Matroska
  5. Format version              : Version 4
  6. File size                   : 1.46 GiB
  7. Duration                    : 1 h 28 min
  8. Overall bit rate            : 2 351 kb/s
  9. Movie name                  : Nancy Drew and the Hidden Staircase WEB-DL / Nancy Drew and the Hidden Staircase WEB-DL
  10. Encoded date                : UTC 2019-03-29 05:49:54
  11. Writing application         : mkvmerge v30.1.0 ('Forever And More') 32-bit
  12. Writing library             : libebml v1.3.6 + libmatroska v1.4.9
  13. Copyright                   : Movies HDs 2019
  14. ARTIST                      : HarshLearner
  15.  
  16. Video
  17. ID                          : 1
  18. Format                      : AVC
  19. Format/Info                 : Advanced Video Codec
  20. Format profile              : Main@L3.1
  21. Format settings             : CABAC / 4 Ref Frames
  22. Format settings, CABAC      : Yes
  23. Format settings, ReFrames   : 4 frames
  24. Codec ID                    : V_MPEG4/ISO/AVC
  25. Duration                    : 1 h 28 min
  26. Bit rate                    : 1 600 kb/s
  27. Width                       : 1 280 pixels
  28. Height                      : 718 pixels
  29. Display aspect ratio        : 16:9
  30. Frame rate mode             : Constant
  31. Frame rate                  : 23.976 (24000/1001) FPS
  32. Color space                 : YUV
  33. Chroma subsampling          : 4:2:0
  34. Bit depth                   : 8 bits
  35. Scan type                   : Progressive
  36. Bits/(Pixel*Frame)          : 0.073
  37. Stream size                 : 1 005 MiB (67%)
  38. Title                       : Nancy Drew and the Hidden Staircase
  39. Writing library             : x264 core 157 r2935 545de2f
  40. Default                     : Yes
  41. Forced                      : No
  42. Color range                 : Limited
  43. Color primaries             : BT.709
  44. Transfer characteristics    : BT.709
  45. Matrix coefficients         : BT.709
  46.  
  47. Audio #1
  48. ID                          : 2
  49. Format                      : AC-3
  50. Format/Info                 : Audio Coding 3
  51. Commercial name             : Dolby Digital
  52. Codec ID                    : A_AC3
  53. Duration                    : 1 h 28 min
  54. Bit rate mode               : Constant
  55. Bit rate                    : 384 kb/s
  56. Channel(s)                  : 6 channels
  57. Channel layout              : L R C LFE Ls Rs
  58. Sampling rate               : 48.0 kHz
  59. Frame rate                  : 31.250 FPS (1536 SPF)
  60. Bit depth                   : 16 bits
  61. Compression mode            : Lossy
  62. Delay relative to video     : -5 ms
  63. Stream size                 : 244 MiB (16%)
  64. Language                    : English
  65. Service kind                : Complete Main
  66. Default                     : No
  67. Forced                      : No
  68.  
  69. Audio #2
  70. ID                          : 3
  71. Format                      : AC-3
  72. Format/Info                 : Audio Coding 3
  73. Commercial name             : Dolby Digital
  74. Codec ID                    : A_AC3
  75. Duration                    : 1 h 28 min
  76. Bit rate mode               : Constant
  77. Bit rate                    : 384 kb/s
  78. Channel(s)                  : 6 channels
  79. Channel layout              : L R C LFE Ls Rs
  80. Sampling rate               : 48.0 kHz
  81. Frame rate                  : 31.250 FPS (1536 SPF)
  82. Bit depth                   : 16 bits
  83. Compression mode            : Lossy
  84. Delay relative to video     : -5 ms
  85. Stream size                 : 244 MiB (16%)
  86. Language                    : Spanish
  87. Service kind                : Complete Main
  88. Default                     : Yes
  89. Forced                      : Yes
  90.  
  91. Text #1
  92. ID                          : 4
  93. Format                      : UTF-8
  94. Codec ID                    : S_TEXT/UTF8
  95. Codec ID/Info               : UTF-8 Plain Text
  96. Duration                    : 1 h 24 min
  97. Bit rate                    : 74 b/s
  98. Count of elements           : 1392
  99. Stream size                 : 46.0 KiB (0%)
  100. Language                    : English
  101. Default                     : No
  102. Forced                      : No
  103.  
  104. Text #2
  105. ID                          : 5
  106. Format                      : UTF-8
  107. Codec ID                    : S_TEXT/UTF8
  108. Codec ID/Info               : UTF-8 Plain Text
  109. Duration                    : 1 h 24 min
  110. Bit rate                    : 73 b/s
  111. Count of elements           : 1396
  112. Stream size                 : 45.2 KiB (0%)
  113. Language                    : Spanish
  114. Default                     : Yes
  115. Forced                      : Yes
  116.  
  117. Text #3
  118. ID                          : 6
  119. Format                      : UTF-8
  120. Codec ID                    : S_TEXT/UTF8
  121. Codec ID/Info               : UTF-8 Plain Text
  122. Duration                    : 1 h 8 min
  123. Bit rate                    : 0 b/s
  124. Count of elements           : 18
  125. Stream size                 : 428 Bytes (0%)
  126. Language                    : Spanish
  127. Default                     : No
  128. Forced                      : No
RAW Paste Data
We use cookies for various purposes including analytics. By continuing to use Pastebin, you agree to our use of cookies as described in the Cookies Policy. OK, I Understand
 
Top