SHARE
TWEET

Nancy Drew and the Hidden Staircase BluRay 720p

dirtyharrys Mar 29th, 2019 (edited) 80 Never
Not a member of Pastebin yet? Sign Up, it unlocks many cool features!
  1. General
  2. Unique ID                   : 241517095559670486901716619550402530500 (0xB5B2802A12A45A8A4C4B1BB9A98BCCC4)
  3. Complete name               : E:\QlJSTkRhbmR0aGVIaWRkZW5TdGFpcmNhc2U.mkv
  4. Format                      : Matroska
  5. Format version              : Version 4
  6. File size                   : 1.62 GiB
  7. Duration                    : 1 h 29 min
  8. Overall bit rate            : 2 603 kb/s
  9. Movie name                  : Nancy Drew and the Hidden Staircase BR-RIP / Nancy Drew and the Hidden Staircase BR-RIP
  10. Encoded date                : UTC 2019-06-30 08:08:21
  11. Writing application         : mkvmerge v30.1.0 ('Forever And More') 32-bit
  12. Writing library             : libebml v1.3.6 + libmatroska v1.4.9
  13. Copyright                   : Movies HDs 2019
  14. ARTIST                      : HarshLearner
  15.  
  16. Video
  17. ID                          : 1
  18. Format                      : AVC
  19. Format/Info                 : Advanced Video Codec
  20. Format profile              : High@L4.1
  21. Format settings             : CABAC / 4 Ref Frames
  22. Format settings, CABAC      : Yes
  23. Format settings, ReFrames   : 4 frames
  24. Codec ID                    : V_MPEG4/ISO/AVC
  25. Duration                    : 1 h 29 min
  26. Bit rate                    : 1 500 kb/s
  27. Width                       : 1 280 pixels
  28. Height                      : 720 pixels
  29. Display aspect ratio        : 16:9
  30. Frame rate mode             : Constant
  31. Frame rate                  : 23.976 (24000/1001) FPS
  32. Original frame rate         : 23.976 (23976/1000) FPS
  33. Color space                 : YUV
  34. Chroma subsampling          : 4:2:0
  35. Bit depth                   : 8 bits
  36. Scan type                   : Progressive
  37. Bits/(Pixel*Frame)          : 0.068
  38. Stream size                 : 957 MiB (58%)
  39. Title                       : Nancy Drew and the Hidden Staircase
  40. Writing library             : x264 core 152 r2851M ba24899
  41. Default                     : Yes
  42. Forced                      : No
  43.  
  44. Audio #1
  45. ID                          : 2
  46. Format                      : AC-3
  47. Format/Info                 : Audio Coding 3
  48. Commercial name             : Dolby Digital
  49. Codec ID                    : A_AC3
  50. Duration                    : 1 h 29 min
  51. Bit rate mode               : Constant
  52. Bit rate                    : 448 kb/s
  53. Channel(s)                  : 6 channels
  54. Channel layout              : L R C LFE Ls Rs
  55. Sampling rate               : 48.0 kHz
  56. Frame rate                  : 31.250 FPS (1536 SPF)
  57. Bit depth                   : 16 bits
  58. Compression mode            : Lossy
  59. Stream size                 : 286 MiB (17%)
  60. Language                    : English
  61. Service kind                : Complete Main
  62. Default                     : No
  63. Forced                      : No
  64.  
  65. Audio #2
  66. ID                          : 3
  67. Format                      : AC-3
  68. Format/Info                 : Audio Coding 3
  69. Commercial name             : Dolby Digital
  70. Codec ID                    : A_AC3
  71. Duration                    : 1 h 29 min
  72. Bit rate mode               : Constant
  73. Bit rate                    : 640 kb/s
  74. Channel(s)                  : 6 channels
  75. Channel layout              : L R C LFE Ls Rs
  76. Sampling rate               : 48.0 kHz
  77. Frame rate                  : 31.250 FPS (1536 SPF)
  78. Bit depth                   : 16 bits
  79. Compression mode            : Lossy
  80. Stream size                 : 409 MiB (25%)
  81. Language                    : Spanish
  82. Service kind                : Complete Main
  83. Default                     : Yes
  84. Forced                      : Yes
  85.  
  86. Text #1
  87. ID                          : 4
  88. Format                      : PGS
  89. Muxing mode                 : zlib
  90. Codec ID                    : S_HDMV/PGS
  91. Codec ID/Info               : Picture based subtitle format used on BDs/HD-DVDs
  92. Duration                    : 1 h 28 min
  93. Bit rate                    : 41.9 kb/s
  94. Count of elements           : 2796
  95. Stream size                 : 26.5 MiB (2%)
  96. Language                    : Spanish
  97. Default                     : No
  98. Forced                      : No
  99.  
  100. Text #2
  101. ID                          : 5
  102. Format                      : PGS
  103. Muxing mode                 : zlib
  104. Codec ID                    : S_HDMV/PGS
  105. Codec ID/Info               : Picture based subtitle format used on BDs/HD-DVDs
  106. Duration                    : 1 h 8 min
  107. Bit rate                    : 674 b/s
  108. Count of elements           : 36
  109. Stream size                 : 338 KiB (0%)
  110. Language                    : Spanish
  111. Default                     : No
  112. Forced                      : No
  113.  
  114. Text #3
  115. ID                          : 6
  116. Format                      : UTF-8
  117. Codec ID                    : S_TEXT/UTF8
  118. Codec ID/Info               : UTF-8 Plain Text
  119. Duration                    : 1 h 25 min
  120. Bit rate                    : 78 b/s
  121. Count of elements           : 1521
  122. Stream size                 : 49.2 KiB (0%)
  123. Language                    : English
  124. Default                     : No
  125. Forced                      : No
  126.  
  127. Text #4
  128. ID                          : 7
  129. Format                      : UTF-8
  130. Codec ID                    : S_TEXT/UTF8
  131. Codec ID/Info               : UTF-8 Plain Text
  132. Duration                    : 1 h 24 min
  133. Bit rate                    : 73 b/s
  134. Count of elements           : 1396
  135. Stream size                 : 45.2 KiB (0%)
  136. Language                    : Spanish
  137. Default                     : Yes
  138. Forced                      : Yes
  139.  
  140. Text #5
  141. ID                          : 8
  142. Format                      : UTF-8
  143. Codec ID                    : S_TEXT/UTF8
  144. Codec ID/Info               : UTF-8 Plain Text
  145. Duration                    : 1 h 8 min
  146. Bit rate                    : 0 b/s
  147. Count of elements           : 18
  148. Stream size                 : 428 Bytes (0%)
  149. Language                    : Spanish
  150. Default                     : No
  151. Forced                      : No
  152.  
  153. Menu
  154. 00:00:00.000                : :Chapter 01
  155. 00:09:28.109                : :Chapter 02
  156. 00:19:10.983                : :Chapter 03
  157. 00:26:41.725                : :Chapter 04
  158. 00:34:24.854                : :Chapter 05
  159. 00:42:01.018                : :Chapter 06
  160. 00:51:06.939                : :Chapter 07
  161. 00:59:47.751                : :Chapter 08
  162. 01:09:19.781                : :Chapter 09
  163. 01:19:26.261                : :Chapter 10
  164. 01:25:38.550                : :Chapter 11
RAW Paste Data
We use cookies for various purposes including analytics. By continuing to use Pastebin, you agree to our use of cookies as described in the Cookies Policy. OK, I Understand
 
Top