SHARE
TWEET

Secret Obsession 1080p HEVC

dirtyharrys Jul 19th, 2019 280 Never
Not a member of Pastebin yet? Sign Up, it unlocks many cool features!
  1. General
  2. Unique ID                   : 330941147488158443898756472538378910631 (0xF8F8F252EB10C716CF325A05CE11BBA7)
  3. Complete name               : E:\Secret.Obsession.2019.WEB-DL.1080p.NF.HEVC.x265\Secret.Obsession.2019.WEB-DL.1080p.NF.HEVC.x265.mkv
  4. Format                      : Matroska
  5. Format version              : Version 4
  6. File size                   : 2.62 GiB
  7. Duration                    : 1 h 37 min
  8. Overall bit rate            : 3 830 kb/s
  9. Movie name                  : Secret Obsession WEB-DL / Secret Obsession WEB-DL
  10. Encoded date                : UTC 2019-07-19 06:07:19
  11. Writing application         : mkvmerge v30.1.0 ('Forever And More') 32-bit
  12. Writing library             : libebml v1.3.6 + libmatroska v1.4.9
  13. Copyright                   : Movies HDs 2019
  14. ARTIST                      : HarshLearner
  15.  
  16. Video
  17. ID                          : 1
  18. Format                      : HEVC
  19. Format/Info                 : High Efficiency Video Coding
  20. Format profile              : Main 10@L4.1@High
  21. Codec ID                    : V_MPEGH/ISO/HEVC
  22. Duration                    : 1 h 37 min
  23. Bit rate                    : 2 996 kb/s
  24. Width                       : 1 920 pixels
  25. Height                      : 816 pixels
  26. Display aspect ratio        : 2.35:1
  27. Frame rate mode             : Constant
  28. Frame rate                  : 23.976 (24000/1001) FPS
  29. Color space                 : YUV
  30. Chroma subsampling          : 4:2:0
  31. Bit depth                   : 10 bits
  32. Bits/(Pixel*Frame)          : 0.080
  33. Stream size                 : 2.05 GiB (78%)
  34. Title                       : Secret Obsession
  35. Language                    : English
  36. Default                     : Yes
  37. Forced                      : No
  38. Color range                 : Limited
  39. Color primaries             : BT.709
  40. Transfer characteristics    : BT.709
  41. Matrix coefficients         : BT.709
  42.  
  43. Audio #1
  44. ID                          : 2
  45. Format                      : E-AC-3
  46. Format/Info                 : Enhanced AC-3
  47. Commercial name             : Dolby Digital Plus
  48. Codec ID                    : A_EAC3
  49. Duration                    : 1 h 37 min
  50. Bit rate mode               : Constant
  51. Bit rate                    : 640 kb/s
  52. Channel(s)                  : 6 channels
  53. Channel layout              : L R C LFE Ls Rs
  54. Sampling rate               : 48.0 kHz
  55. Frame rate                  : 31.250 FPS (1536 SPF)
  56. Compression mode            : Lossy
  57. Stream size                 : 449 MiB (17%)
  58. Language                    : English
  59. Service kind                : Complete Main
  60. Default                     : No
  61. Forced                      : No
  62.  
  63. Audio #2
  64. ID                          : 3
  65. Format                      : E-AC-3
  66. Format/Info                 : Enhanced AC-3
  67. Commercial name             : Dolby Digital Plus
  68. Codec ID                    : A_EAC3
  69. Duration                    : 1 h 37 min
  70. Bit rate mode               : Constant
  71. Bit rate                    : 192 kb/s
  72. Channel(s)                  : 6 channels
  73. Channel layout              : L R C LFE Ls Rs
  74. Sampling rate               : 48.0 kHz
  75. Frame rate                  : 31.250 FPS (1536 SPF)
  76. Compression mode            : Lossy
  77. Stream size                 : 135 MiB (5%)
  78. Language                    : Spanish
  79. Service kind                : Complete Main
  80. Default                     : Yes
  81. Forced                      : Yes
  82.  
  83. Text #1
  84. ID                          : 4
  85. Format                      : UTF-8
  86. Codec ID                    : S_TEXT/UTF8
  87. Codec ID/Info               : UTF-8 Plain Text
  88. Duration                    : 1 h 31 min
  89. Bit rate                    : 35 b/s
  90. Count of elements           : 832
  91. Stream size                 : 23.7 KiB (0%)
  92. Language                    : English
  93. Default                     : No
  94. Forced                      : No
  95.  
  96. Text #2
  97. ID                          : 5
  98. Format                      : UTF-8
  99. Codec ID                    : S_TEXT/UTF8
  100. Codec ID/Info               : UTF-8 Plain Text
  101. Duration                    : 1 h 34 min
  102. Bit rate                    : 53 b/s
  103. Count of elements           : 1378
  104. Stream size                 : 37.1 KiB (0%)
  105. Title                       : English SDH
  106. Language                    : English
  107. Default                     : No
  108. Forced                      : No
  109.  
  110. Text #3
  111. ID                          : 6
  112. Format                      : UTF-8
  113. Codec ID                    : S_TEXT/UTF8
  114. Codec ID/Info               : UTF-8 Plain Text
  115. Duration                    : 1 h 36 min
  116. Bit rate                    : 31 b/s
  117. Count of elements           : 840
  118. Stream size                 : 22.5 KiB (0%)
  119. Language                    : Spanish
  120. Default                     : Yes
  121. Forced                      : Yes
  122.  
  123. Text #4
  124. ID                          : 7
  125. Format                      : UTF-8
  126. Codec ID                    : S_TEXT/UTF8
  127. Codec ID/Info               : UTF-8 Plain Text
  128. Duration                    : 1 h 36 min
  129. Bit rate                    : 1 b/s
  130. Count of elements           : 34
  131. Stream size                 : 870 Bytes (0%)
  132. Language                    : Spanish
  133. Default                     : No
  134. Forced                      : No
RAW Paste Data
We use cookies for various purposes including analytics. By continuing to use Pastebin, you agree to our use of cookies as described in the Cookies Policy. OK, I Understand
 
Top