SHARE
TWEET

Freaky.Friday.2003.BluRay.1080p.DTS-HD.MA.5.1.AVC.REMUX-FraMeSToR

a guest Jun 18th, 2019 21 Never
Not a member of Pastebin yet? Sign Up, it unlocks many cool features!
  1. General
  2. Complete name                            : Freaky.Friday.2003.BluRay.1080p.DTS-HD.MA.5.1.AVC.REMUX-FraMeSToR.mkv
  3. Format                                   : Matroska
  4. Format version                           : Version 4
  5. File size                                : 20.6 GiB
  6. Duration                                 : 1 h 36 min
  7. Overall bit rate mode                    : Variable
  8. Overall bit rate                         : 30.5 Mb/s
  9. Encoded date                             : UTC 2018-04-10 14:22:43
  10. Writing application                      : mkvmerge v22.0.0 ('At The End Of The World') 64-bit
  11. Writing library                          : libebml v1.3.5 + libmatroska v1.4.8
  12.  
  13. Video
  14. ID                                       : 1
  15. Format                                   : AVC
  16. Format/Info                              : Advanced Video Codec
  17. Format profile                           : High@L4.1
  18. Format settings                          : CABAC / 4 Ref Frames
  19. Format settings, CABAC                   : Yes
  20. Format settings, Reference frames        : 4 frames
  21. Codec ID                                 : V_MPEG4/ISO/AVC
  22. Duration                                 : 1 h 36 min
  23. Bit rate mode                            : Variable
  24. Bit rate                                 : 26.7 Mb/s
  25. Maximum bit rate                         : 32.0 Mb/s
  26. Width                                    : 1 920 pixels
  27. Height                                   : 1 080 pixels
  28. Display aspect ratio                     : 16:9
  29. Frame rate mode                          : Constant
  30. Frame rate                               : 23.976 (24000/1001) FPS
  31. Color space                              : YUV
  32. Chroma subsampling                       : 4:2:0
  33. Bit depth                                : 8 bits
  34. Scan type                                : Progressive
  35. Bits/(Pixel*Frame)                       : 0.537
  36. Stream size                              : 18.1 GiB (88%)
  37. Default                                  : Yes
  38. Forced                                   : No
  39.  
  40. Audio
  41. ID                                       : 2
  42. Format                                   : DTS XLL
  43. Format/Info                              : Digital Theater Systems
  44. Commercial name                          : DTS-HD Master Audio
  45. Codec ID                                 : A_DTS
  46. Duration                                 : 1 h 36 min
  47. Bit rate mode                            : Variable
  48. Bit rate                                 : 3 668 kb/s
  49. Channel(s)                               : 6 channels
  50. Channel layout                           : C L R Ls Rs LFE
  51. Sampling rate                            : 48.0 kHz
  52. Frame rate                               : 93.750 FPS (512 SPF)
  53. Bit depth                                : 24 bits
  54. Compression mode                         : Lossless
  55. Stream size                              : 2.48 GiB (12%)
  56. Title                                    : DTS-HD MA 5.1
  57. Language                                 : English
  58. Default                                  : Yes
  59. Forced                                   : No
  60.  
  61. Text
  62. ID                                       : 3
  63. Format                                   : PGS
  64. Codec ID                                 : S_HDMV/PGS
  65. Codec ID/Info                            : Picture based subtitle format used on BDs/HD-DVDs
  66. Duration                                 : 1 h 34 min
  67. Bit rate                                 : 83.9 kb/s
  68. Count of elements                        : 3110
  69. Stream size                              : 56.7 MiB (0%)
  70. Title                                    : English (SDH)
  71. Language                                 : English
  72. Default                                  : No
  73. Forced                                   : No
  74.  
  75. Menu
  76. 00:00:00.000                             : en:Chapter 1
  77. 00:10:13.071                             : en:Chapter 2
  78. 00:17:30.341                             : en:Chapter 3
  79. 00:24:05.611                             : en:Chapter 4
  80. 00:32:58.018                             : en:Chapter 5
  81. 00:41:53.052                             : en:Chapter 6
  82. 00:55:04.051                             : en:Chapter 7
  83. 01:03:52.746                             : en:Chapter 8
  84. 01:11:18.524                             : en:Chapter 9
  85. 01:16:36.467                             : en:Chapter 10
  86. 01:22:15.848                             : en:Chapter 11
  87. 01:29:50.427                             : en:Chapter 12
RAW Paste Data
We use cookies for various purposes including analytics. By continuing to use Pastebin, you agree to our use of cookies as described in the Cookies Policy. OK, I Understand
 
Top