Interfilm

Untitled

May 30th, 2014
195
Never
Not a member of Pastebin yet? Sign Up, it unlocks many cool features!
  1. Общее
  2. Just.Like.Brothers.2012.Blu.Ray.1080p.CINEMANIA.mkv
  3. Формат : Matroska
  4. Версия формата : Version 4 / Version 2
  5. Размер файла : 9,33 Гбайт
  6. Продолжительность : 1 ч. 43 м.
  7. Общий поток : 12,9 Мбит/сек
  8. Название фильма : Release Group CINEMANIA
  9. Дата кодирования : UTC 2014-05-30 20:03:10
  10. Программа кодирования : mkvmerge v6.9.1 ('Blue Panther') 64bit built on Apr 18 2014 18:23:38
  11. Библиотека кодирования : libebml v1.3.0 + libmatroska v1.4.1
  12.  
  13. Видео
  14. Идентификатор : 1
  15. Формат : AVC
  16. Формат/Информация : Advanced Video Codec
  17. Профиль формата : High@L4.1
  18. Параметр CABAC формата : Да
  19. Параметр ReFrames формата : 4 кадра
  20. Идентификатор кодека : V_MPEG4/ISO/AVC
  21. Продолжительность : 1 ч. 43 м.
  22. Битрейт : 11,2 Мбит/сек
  23. Ширина : 1920 пикселей
  24. Высота : 1040 пикселей
  25. Соотношение сторон : 1,85:1
  26. Режим частоты кадров : Постоянный
  27. Частота кадров : 24,000 кадра/сек
  28. Цветовое пространство : YUV
  29. Субдискретизация насыщенности : 4:2:0
  30. Битовая глубина : 8 бит
  31. Тип развёртки : Прогрессивная
  32. Бит/(Пиксели*Кадры) : 0.234
  33. Размер потока : 7,92 Гбайт (85%)
  34. Заголовок : Release Group CINEMANIA
  35. Библиотека кодирования : x264 core 129 r2245 bc13772
  36. Настройки программы : cabac=1 / ref=4 / deblock=1:-3:-3 / analyse=0x3:0x133 / me=umh / subme=10 / psy=1 / psy_rd=1.10:0.10 / mixed_ref=1 / me_range=32 / chroma_me=1 / trellis=2 / 8x8dct=1 / cqm=0 / deadzone=21,11 / fast_pskip=0 / chroma_qp_offset=-2 / threads=6 / lookahead_threads=1 / sliced_threads=0 / nr=0 / decimate=1 / interlaced=0 / bluray_compat=0 / constrained_intra=0 / bframes=8 / b_pyramid=2 / b_adapt=2 / b_bias=0 / direct=3 / weightb=1 / open_gop=0 / weightp=2 / keyint=250 / keyint_min=24 / scenecut=40 / intra_refresh=0 / rc_lookahead=40 / rc=2pass / mbtree=0 / bitrate=11191 / ratetol=1.0 / qcomp=0.70 / qpmin=0 / qpmax=69 / qpstep=4 / cplxblur=20.0 / qblur=0.5 / vbv_maxrate=40000 / vbv_bufsize=30000 / nal_hrd=none / ip_ratio=1.40 / pb_ratio=1.30 / aq=2:0.90
  37. Язык : English
  38. Default : Да
  39. Forced : Нет
  40.  
  41. Аудио #1
  42. Идентификатор : 2
  43. Формат : AC-3
  44. Формат/Информация : Audio Coding 3
  45. Расширение режима : CM (complete main)
  46. Параметр Endianness формата : Big
  47. Идентификатор кодека : A_AC3
  48. Продолжительность : 1 ч. 43 м.
  49. Вид битрейта : Постоянный
  50. Битрейт : 192 Кбит/сек
  51. Каналы : 2 канала
  52. Расположение каналов : Front: L R
  53. Частота : 48,0 КГц
  54. Битовая глубина : 16 бит
  55. Метод сжатия : С потерями
  56. Размер потока : 142 Мбайт (1%)
  57. Заголовок : PashaUp
  58. Язык : Russian
  59. Default : Да
  60. Forced : Да
  61.  
  62. Аудио #2
  63. Идентификатор : 3
  64. Формат : DTS
  65. Формат/Информация : Digital Theater Systems
  66. Режим : 16
  67. Параметр Endianness формата : Big
  68. Идентификатор кодека : A_DTS
  69. Продолжительность : 1 ч. 43 м.
  70. Вид битрейта : Постоянный
  71. Битрейт : 1509 Кбит/сек
  72. Каналы : 6 каналов
  73. Расположение каналов : Front: L C R, Side: L R, LFE
  74. Частота : 48,0 КГц
  75. Битовая глубина : 24 бит
  76. Метод сжатия : С потерями
  77. Размер потока : 1,09 Гбайт (12%)
  78. Язык : French
  79. Default : Нет
  80. Forced : Нет
  81.  
  82. Текст #1
  83. Идентификатор : 4
  84. Формат : UTF-8
  85. Идентификатор кодека : S_TEXT/UTF8
  86. Идентификатор кодека/Информация : UTF-8 Plain Text
  87. Заголовок : Oksanchic
  88. Язык : Russian
  89. Default : Нет
  90. Forced : Нет
  91.  
  92. Текст #2
  93. Идентификатор : 5
  94. Формат : UTF-8
  95. Идентификатор кодека : S_TEXT/UTF8
  96. Идентификатор кодека/Информация : UTF-8 Plain Text
  97. Язык : English
  98. Default : Нет
  99. Forced : Нет
  100.  
  101. Меню
  102. 00:00:00.000 : en:00:00:00.000
  103. 00:10:24.292 : en:00:10:24.292
  104. 00:16:02.625 : en:00:16:02.625
  105. 00:26:43.958 : en:00:26:43.958
  106. 00:33:13.750 : en:00:33:13.750
  107. 00:44:49.792 : en:00:44:49.792
  108. 00:54:13.792 : en:00:54:13.792
  109. 01:01:47.458 : en:01:01:47.458
  110. 01:10:06.417 : en:01:10:06.417
  111. 01:19:19.250 : en:01:19:19.250
  112. 01:28:44.083 : en:01:28:44.083
  113. 01:39:15.125 : en:01:39:15.125
RAW Paste Data