eipieq-1

test.vob and testaac.mp4 volumedetect

May 26th, 2020 (edited)
44
Never
Not a member of Pastebin yet? Sign Up, it unlocks many cool features!
  1. [mpeg @ 0000022cb3b72f00] start time for stream 0 is not set in estimate_timings_from_pts
  2. Input #0, mpeg, from 'test.vob':
  3. Duration: 00:00:18.93, start: 0.490000, bitrate: 9635 kb/s
  4. Stream #0:0[0x1bf]: Data: dvd_nav_packet
  5. Stream #0:1[0x80]: Audio: ac3, 48000 Hz, stereo, fltp, 256 kb/s
  6. Stream #0:2[0x1e0]: Video: mpeg2video (Main), yuv420p(tv, top first), 720x576 [SAR 16:15 DAR 4:3], Closed Captions, 25 fps, 25 tbr, 90k tbn, 50 tbc
  7. Side data:
  8. cpb: bitrate max/min/avg: 9450000/0/0 buffer size: 1835008 vbv_delay: N/A
  9. Stream mapping:
  10. Stream #0:2 -> #0:0 (copy)
  11. Stream #0:1 -> #0:1 (ac3 (native) -> pcm_s16le (native))
  12. Press [q] to stop, [?] for help
  13. Output #0, null, to 'NUL':
  14. Metadata:
  15. encoder : Lavf58.43.100
  16. Stream #0:0: Video: mpeg2video (Main), yuv420p(tv, top first), 720x576 [SAR 16:15 DAR 4:3], q=2-31, 25 fps, 25 tbr, 90k tbn, 90k tbc
  17. Side data:
  18. cpb: bitrate max/min/avg: 9450000/0/0 buffer size: 1835008 vbv_delay: N/A
  19. Stream #0:1: Audio: pcm_s16le, 48000 Hz, stereo, s16, 1536 kb/s
  20. Metadata:
  21. encoder : Lavc58.86.101 pcm_s16le
  22. [null @ 0000022cb3b79400] Application provided invalid, non monotonically increasing dts to muxer in stream 1: 376320 >= 376320
  23. [null @ 0000022cb3b79400] Application provided invalid, non monotonically increasing dts to muxer in stream 1: 470016 >= 470016
  24. [null @ 0000022cb3b79400] Application provided invalid, non monotonically increasing dts to muxer in stream 1: 563712 >= 563712
  25. [null @ 0000022cb3b79400] Application provided invalid, non monotonically increasing dts to muxer in stream 1: 657408 >= 657408
  26. [null @ 0000022cb3b79400] Application provided invalid, non monotonically increasing dts to muxer in stream 1: 751104 >= 751104
  27. [null @ 0000022cb3b79400] Application provided invalid, non monotonically increasing dts to muxer in stream 1: 844800 >= 844800
  28. frame= 461 fps=0.0 q=-1.0 Lsize=N/A time=00:00:18.80 bitrate=N/A speed= 140x
  29. video:21276kB audio:3516kB subtitle:0kB other streams:0kB global headers:0kB muxing overhead: unknown
  30. [Parsed_volumedetect_0 @ 0000022cb40e3040] n_samples: 1800192
  31. [Parsed_volumedetect_0 @ 0000022cb40e3040] mean_volume: -24.4 dB
  32. [Parsed_volumedetect_0 @ 0000022cb40e3040] max_volume: -10.4 dB
  33. [Parsed_volumedetect_0 @ 0000022cb40e3040] histogram_10db: 23
  34. [Parsed_volumedetect_0 @ 0000022cb40e3040] histogram_11db: 177
  35. [Parsed_volumedetect_0 @ 0000022cb40e3040] histogram_12db: 640
  36. [Parsed_volumedetect_0 @ 0000022cb40e3040] histogram_13db: 2152
  37. Input #0, mov,mp4,m4a,3gp,3g2,mj2, from 'testaac.mp4':
  38. Metadata:
  39. major_brand : isom
  40. minor_version : 1
  41. compatible_brands: isomavc1
  42. creation_time : 2020-05-26T19:14:00.000000Z
  43. Duration: 00:00:18.44, start: 0.000000, bitrate: 2757 kb/s
  44. Stream #0:0(und): Video: h264 (High) (avc1 / 0x31637661), yuv420p, 720x560 [SAR 12:11 DAR 108:77], 2497 kb/s, 25 fps, 25 tbr, 100 tbn, 50 tbc (default)
  45. Metadata:
  46. creation_time : 2020-05-26T19:14:00.000000Z
  47. Stream #0:1(eng): Audio: aac (LC) (mp4a / 0x6134706D), 48000 Hz, stereo, fltp, 256 kb/s (default)
  48. Metadata:
  49. creation_time : 2020-05-26T19:13:58.000000Z
  50. Stream mapping:
  51. Stream #0:0 -> #0:0 (copy)
  52. Stream #0:1 -> #0:1 (aac (native) -> pcm_s16le (native))
  53. Press [q] to stop, [?] for help
  54. Output #0, null, to 'NUL':
  55. Metadata:
  56. major_brand : isom
  57. minor_version : 1
  58. compatible_brands: isomavc1
  59. encoder : Lavf58.43.100
  60. Stream #0:0(und): Video: h264 (High) (avc1 / 0x31637661), yuv420p, 720x560 [SAR 12:11 DAR 108:77], q=2-31, 2497 kb/s, 25 fps, 25 tbr, 100 tbn, 100 tbc (default)
  61. Metadata:
  62. creation_time : 2020-05-26T19:14:00.000000Z
  63. Stream #0:1(eng): Audio: pcm_s16le, 48000 Hz, stereo, s16, 1536 kb/s (default)
  64. Metadata:
  65. creation_time : 2020-05-26T19:13:58.000000Z
  66. encoder : Lavc58.86.101 pcm_s16le
  67. frame= 461 fps=0.0 q=-1.0 Lsize=N/A time=00:00:18.36 bitrate=N/A speed= 483x
  68. video:5622kB audio:3444kB subtitle:0kB other streams:0kB global headers:0kB muxing overhead: unknown
  69. [Parsed_volumedetect_0 @ 000002c39d3dd000] n_samples: 1763328
  70. [Parsed_volumedetect_0 @ 000002c39d3dd000] mean_volume: -14.0 dB
  71. [Parsed_volumedetect_0 @ 000002c39d3dd000] max_volume: -0.1 dB
  72. [Parsed_volumedetect_0 @ 000002c39d3dd000] histogram_0db: 64
  73. [Parsed_volumedetect_0 @ 000002c39d3dd000] histogram_1db: 269
  74. [Parsed_volumedetect_0 @ 000002c39d3dd000] histogram_2db: 1102
  75. [Parsed_volumedetect_0 @ 000002c39d3dd000] histogram_3db: 3221
RAW Paste Data