SHARE
TWEET

Kill.Bill.Vol.1.2003.German.DTS.DL.1080p.BluRay.REMUX-DarkHD

a guest Jun 17th, 2019 139 Never
Not a member of Pastebin yet? Sign Up, it unlocks many cool features!
  1. General
  2. Unique ID                                : 32085051140287191437584546286636912987 (0x18235B27C911FA64B7FDA2C11FD8515B)
  3. Complete name                            : Kill.Bill.Vol1.2003.German.DTS.DL.1080p.BluRay.REMUX-DarkHD.mkv
  4. Format                                   : Matroska
  5. Format version                           : Version 2
  6. File size                                : 24.9 GiB
  7. Duration                                 : 1 h 50 min
  8. Overall bit rate                         : 32.3 Mb/s
  9. Encoded date                             : UTC 2011-05-13 10:08:01
  10. Writing application                      : MakeMKV v1.6.8 win(x64-release)
  11. Writing library                          : libmakemkv v1.6.8 (0.7.7/0.8.1) win(x64-release)
  12.  
  13. Video
  14. ID                                       : 1
  15. Format                                   : AVC
  16. Format/Info                              : Advanced Video Codec
  17. Format profile                           : High@L4.1
  18. Format settings                          : CABAC / 3 Ref Frames
  19. Format settings, CABAC                   : Yes
  20. Format settings, Reference frames        : 3 frames
  21. Codec ID                                 : V_MPEG4/ISO/AVC
  22. Duration                                 : 1 h 50 min
  23. Bit rate                                 : 29.5 Mb/s
  24. Width                                    : 1 920 pixels
  25. Height                                   : 1 080 pixels
  26. Display aspect ratio                     : 16:9
  27. Frame rate mode                          : Constant
  28. Frame rate                               : 23.976 (24000/1001) FPS
  29. Color space                              : YUV
  30. Chroma subsampling                       : 4:2:0
  31. Bit depth                                : 8 bits
  32. Scan type                                : Progressive
  33. Bits/(Pixel*Frame)                       : 0.593
  34. Stream size                              : 22.8 GiB (91%)
  35. Language                                 : English
  36. Default                                  : Yes
  37. Forced                                   : No
  38.  
  39. Audio #1
  40. ID                                       : 2
  41. Format                                   : AC-3
  42. Format/Info                              : Audio Coding 3
  43. Commercial name                          : Dolby Digital
  44. Codec ID                                 : A_AC3
  45. Duration                                 : 1 h 50 min
  46. Bit rate mode                            : Constant
  47. Bit rate                                 : 640 kb/s
  48. Channel(s)                               : 6 channels
  49. Channel layout                           : L R C LFE Ls Rs
  50. Sampling rate                            : 48.0 kHz
  51. Frame rate                               : 31.250 FPS (1536 SPF)
  52. Bit depth                                : 16 bits
  53. Compression mode                         : Lossy
  54. Stream size                              : 507 MiB (2%)
  55. Title                                    : 3/2+1
  56. Language                                 : English
  57. Service kind                             : Complete Main
  58. Default                                  : Yes
  59. Forced                                   : No
  60.  
  61. Audio #2
  62. ID                                       : 3
  63. Format                                   : DTS
  64. Format/Info                              : Digital Theater Systems
  65. Codec ID                                 : A_DTS
  66. Duration                                 : 1 h 50 min
  67. Bit rate mode                            : Constant
  68. Bit rate                                 : 1 509 kb/s
  69. Channel(s)                               : 6 channels
  70. Channel layout                           : C L R Ls Rs LFE
  71. Sampling rate                            : 48.0 kHz
  72. Frame rate                               : 93.750 FPS (512 SPF)
  73. Bit depth                                : 24 bits
  74. Compression mode                         : Lossy
  75. Stream size                              : 1.17 GiB (5%)
  76. Title                                    : 3/2+1
  77. Language                                 : German
  78. Default                                  : No
  79. Forced                                   : No
  80.  
  81. Text #1
  82. ID                                       : 4
  83. Format                                   : PGS
  84. Codec ID                                 : S_HDMV/PGS
  85. Codec ID/Info                            : Picture based subtitle format used on BDs/HD-DVDs
  86. Language                                 : English
  87. Default                                  : Yes
  88. Forced                                   : No
  89.  
  90. Text #2
  91. ID                                       : 6
  92. Format                                   : PGS
  93. Codec ID                                 : S_HDMV/PGS
  94. Codec ID/Info                            : Picture based subtitle format used on BDs/HD-DVDs
  95. Language                                 : English
  96. Default                                  : No
  97. Forced                                   : No
  98.  
  99. Text #3
  100. ID                                       : 8
  101. Format                                   : PGS
  102. Codec ID                                 : S_HDMV/PGS
  103. Codec ID/Info                            : Picture based subtitle format used on BDs/HD-DVDs
  104. Language                                 : German
  105. Default                                  : No
  106. Forced                                   : No
  107.  
  108. Text #4
  109. ID                                       : 10
  110. Format                                   : PGS
  111. Codec ID                                 : S_HDMV/PGS
  112. Codec ID/Info                            : Picture based subtitle format used on BDs/HD-DVDs
  113. Language                                 : English
  114. Default                                  : No
  115. Forced                                   : No
  116.  
  117. Text #5
  118. ID                                       : 12
  119. Format                                   : PGS
  120. Codec ID                                 : S_HDMV/PGS
  121. Codec ID/Info                            : Picture based subtitle format used on BDs/HD-DVDs
  122. Language                                 : German
  123. Default                                  : No
  124. Forced                                   : No
  125.  
  126. Menu
  127. 00:00:00.000                             : en:Chapter 00
  128. 00:02:27.856                             : en:Chapter 01
  129. 00:05:08.141                             : en:Chapter 02
  130. 00:09:50.214                             : en:Chapter 03
  131. 00:16:08.592                             : en:Chapter 04
  132. 00:19:52.024                             : en:Chapter 05
  133. 00:25:12.135                             : en:Chapter 06
  134. 00:32:19.062                             : en:Chapter 07
  135. 00:35:57.655                             : en:Chapter 08
  136. 00:45:02.407                             : en:Chapter 09
  137. 00:50:30.861                             : en:Chapter 10
  138. 00:58:39.724                             : en:Chapter 11
  139. 01:04:35.121                             : en:Chapter 12
  140. 01:13:12.221                             : en:Chapter 13
  141. 01:21:39.436                             : en:Chapter 14
  142. 01:30:05.733                             : en:Chapter 15
  143. 01:38:37.077                             : en:Chapter 16
  144. 01:41:46.099                             : en:Chapter 17
  145. 01:43:19.401                             : en:Chapter 18
  146. 01:50:42.635                             : en:Chapter 19
RAW Paste Data
We use cookies for various purposes including analytics. By continuing to use Pastebin, you agree to our use of cookies as described in the Cookies Policy. OK, I Understand
 
Top