Guest User

[DB] Rurouni Kenshin S01E01 480p

a guest
Nov 29th, 2017
541
Never
Not a member of Pastebin yet? Sign Up, it unlocks many cool features!
  1. General
  2. Unique ID : 240482487434684799193049816917550727560 (0xB4EB3E0BA3F25A648EF828DB3E2E8188)
  3. Complete name : [DB]Rurouni Kenshin_-_01_(Dual Audio_10bit_DVD480p_x265).mkv
  4. Format : Matroska
  5. Format version : Version 4 / Version 2
  6. File size : 152 MiB
  7. Duration : 23 min 11 s
  8. Overall bit rate : 917 kb/s
  9. Movie name : Rurouni Kenshin
  10. Encoded date : UTC 2017-10-02 10:21:18
  11. Writing application : mkvmerge v15.0.0 ('Duel with the Devil') 64-bit
  12. Writing library : libebml v1.3.5 + libmatroska v1.4.5
  13. Attachments : CronosPro-Bold.ttf / CronosPro-Semibold.ttf / CronosPro-SemiboldIt.ttf / impact.ttf
  14.  
  15. Video
  16. ID : 1
  17. Format : HEVC
  18. Format/Info : High Efficiency Video Coding
  19. Format profile : Main 10@L3@Main
  20. Codec ID : V_MPEGH/ISO/HEVC
  21. Duration : 23 min 11 s
  22. Bit rate : 597 kb/s
  23. Width : 640 pixels
  24. Height : 480 pixels
  25. Display aspect ratio : 4:3
  26. Frame rate mode : Constant
  27. Frame rate : 23.976 (24000/1001) FPS
  28. Color space : YUV
  29. Chroma subsampling : 4:2:0
  30. Bit depth : 10 bits
  31. Bits/(Pixel*Frame) : 0.081
  32. Stream size : 99.1 MiB (65%)
  33. Writing library : x265 2.4+14-bc0e9bd7c08f5ddc:[Windows][GCC 6.3.0][64 bit] 10bit: KG7x [x265.ru]
  34. Encoding settings : cpuid=1173503 / frame-threads=3 / numa-pools=8 / wpp / no-pmode / no-pme / no-psnr / no-ssim / log-level=2 / input-csp=1 / input-res=640x480 / interlace=0 / total-frames=33361 / level-idc=0 / high-tier=1 / uhd-bd=0 / ref=3 / no-allow-non-conformance / no-repeat-headers / annexb / no-aud / no-hrd / info / hash=0 / no-temporal-layers / open-gop / min-keyint=23 / keyint=250 / bframes=4 / b-adapt=2 / b-pyramid / bframe-bias=0 / rc-lookahead=20 / lookahead-slices=0 / scenecut=40 / no-intra-refresh / ctu=64 / min-cu-size=8 / no-rect / no-amp / max-tu-size=32 / tu-inter-depth=1 / tu-intra-depth=1 / limit-tu=0 / rdoq-level=0 / dynamic-rd=0.00 / no-ssim-rd / signhide / no-tskip / nr-intra=0 / nr-inter=0 / no-constrained-intra / strong-intra-smoothing / max-merge=2 / limit-refs=3 / no-limit-modes / me=1 / subme=2 / merange=57 / temporal-mvp / weightp / no-weightb / no-analyze-src-pics / deblock=0:0 / sao / no-sao-non-deblock / rd=3 / no-early-skip / rskip / no-fast-intra / no-tskip-fast / no-cu-lossless / no-b-intra / rdpenalty=0 / psy-rd=2.00 / psy-rdoq=0.00 / no-rd-refine / analysis-mode=0 / no-lossless / cbqpoffs=0 / crqpoffs=0 / rc=crf / crf=19.0 / qcomp=0.60 / qpstep=4 / stats-write=0 / stats-read=0 / ipratio=1.40 / pbratio=1.30 / aq-mode=1 / aq-strength=1.00 / cutree / zone-count=0 / no-strict-cbr / qg-size=32 / no-rc-grain / qpmax=69 / qpmin=0 / sar=1 / overscan=0 / videoformat=5 / range=0 / colorprim=2 / transfer=2 / colormatrix=2 / chromaloc=0 / display-window=0 / max-cll=0,0 / min-luma=0 / max-luma=1023 / log2-max-poc-lsb=8 / vui-timing-info / vui-hrd-info / slices=1 / opt-qp-pps / opt-ref-list-length-pps / no-multi-pass-opt-rps / scenecut-bias=0.05 / no-opt-cu-delta-qp / no-aq-motion / no-hdr / no-hdr-opt / no-dhdr10-opt / refine-level=5 / no-limit-sao / ctu-info=0
  35. Default : Yes
  36. Forced : No
  37.  
  38. Audio #1
  39. ID : 2
  40. Format : AAC
  41. Format/Info : Advanced Audio Codec
  42. Format profile : LC
  43. Codec ID : A_AAC-2
  44. Duration : 23 min 11 s
  45. Bit rate : 159 kb/s
  46. Channel(s) : 2 channels
  47. Channel positions : Front: L R
  48. Sampling rate : 48.0 kHz
  49. Frame rate : 46.875 FPS (1024 SPF)
  50. Compression mode : Lossy
  51. Delay relative to video : 9 ms
  52. Stream size : 26.3 MiB (17%)
  53. Language : English
  54. Default : Yes
  55. Forced : No
  56.  
  57. Audio #2
  58. ID : 3
  59. Format : AAC
  60. Format/Info : Advanced Audio Codec
  61. Format profile : LC
  62. Codec ID : A_AAC-2
  63. Duration : 23 min 11 s
  64. Bit rate : 155 kb/s
  65. Channel(s) : 2 channels
  66. Channel positions : Front: L R
  67. Sampling rate : 48.0 kHz
  68. Frame rate : 46.875 FPS (1024 SPF)
  69. Compression mode : Lossy
  70. Delay relative to video : 9 ms
  71. Stream size : 25.7 MiB (17%)
  72. Language : Japanese
  73. Default : No
  74. Forced : No
  75.  
  76. Text
  77. ID : 4
  78. Format : ASS
  79. Codec ID : S_TEXT/ASS
  80. Codec ID/Info : Advanced Sub Station Alpha
  81. Duration : 22 min 56 s
  82. Bit rate : 137 b/s
  83. Count of elements : 358
  84. Compression mode : Lossless
  85. Stream size : 23.1 KiB (0%)
  86. Language : English
  87. Default : No
  88. Forced : No
  89.  
  90. Menu
  91. 00:00:00.000 : en:Opening
  92. 00:01:33.000 : en:Start
  93. 00:11:30.000 : en:Middle
  94. 00:21:33.000 : en:Ending
RAW Paste Data