iMN0

Ed.Wood.1994.1080p.BluRay.X264-AMIABLE

Jul 13th, 2021
93
Never
Not a member of Pastebin yet? Sign Up, it unlocks many cool features!
  1. General
  2. Complete name : Ed.Wood.1994.1080p.BluRay.X264-AMIABLE.mkv
  3. Format : Matroska
  4. Format version : Version 2
  5. File size : 8.74 GiB
  6. Duration : 2 h 6 min
  7. Overall bit rate : 9 889 kb/s
  8. Writing application : mkvmerge v4.1.1 ('Bouncin' Back') built on Jul 3 2010 22:54:08
  9. Writing library : libebml v1.0.0 + libmatroska v1.0
  10.  
  11. Video
  12. ID : 1
  13. Format : AVC
  14. Format/Info : Advanced Video Codec
  15. Format profile : High@L4.1
  16. Format settings : CABAC / 4 Ref Frames
  17. Format settings, CABAC : Yes
  18. Format settings, Reference frames : 4 frames
  19. Codec ID : V_MPEG4/ISO/AVC
  20. Duration : 2 h 6 min
  21. Bit rate : 8 382 kb/s
  22. Width : 1 920 pixels
  23. Height : 1 040 pixels
  24. Display aspect ratio : 1.85:1
  25. Frame rate mode : Constant
  26. Frame rate : 23.976 (24000/1001) FPS
  27. Color space : YUV
  28. Chroma subsampling : 4:2:0
  29. Bit depth : 8 bits
  30. Scan type : Progressive
  31. Bits/(Pixel*Frame) : 0.175
  32. Stream size : 7.23 GiB (83%)
  33. Writing library : x264 core 125 r2208 d9d2288
  34. Encoding settings : cabac=1 / ref=4 / deblock=1:0:0 / analyse=0x3:0x113 / me=umh / subme=8 / psy=1 / psy_rd=1.00:0.00 / mixed_ref=1 / me_range=16 / chroma_me=1 / trellis=1 / 8x8dct=1 / cqm=0 / deadzone=21,11 / fast_pskip=1 / chroma_qp_offset=-2 / threads=12 / lookahead_threads=2 / sliced_threads=0 / nr=0 / decimate=1 / interlaced=0 / bluray_compat=0 / constrained_intra=0 / bframes=3 / b_pyramid=2 / b_adapt=2 / b_bias=0 / direct=3 / weightb=1 / open_gop=0 / weightp=2 / keyint=240 / keyint_min=24 / scenecut=40 / intra_refresh=0 / rc_lookahead=50 / rc=2pass / mbtree=1 / bitrate=8382 / ratetol=1.0 / qcomp=0.60 / qpmin=0 / qpmax=69 / qpstep=4 / cplxblur=20.0 / qblur=0.5 / ip_ratio=1.40 / aq=1:1.00
  35. Language : English
  36. Default : Yes
  37. Forced : No
  38.  
  39. Audio
  40. ID : 2
  41. Format : DTS
  42. Format/Info : Digital Theater Systems
  43. Codec ID : A_DTS
  44. Duration : 2 h 6 min
  45. Bit rate mode : Constant
  46. Bit rate : 1 509 kb/s
  47. Channel(s) : 6 channels
  48. Channel layout : C L R Ls Rs LFE
  49. Sampling rate : 48.0 kHz
  50. Frame rate : 93.750 FPS (512 SPF)
  51. Bit depth : 24 bits
  52. Compression mode : Lossy
  53. Stream size : 1.33 GiB (15%)
  54. Language : English
  55. Default : Yes
  56. Forced : No
  57.  
  58. Text
  59. ID : 3
  60. Format : UTF-8
  61. Codec ID : S_TEXT/UTF8
  62. Codec ID/Info : UTF-8 Plain Text
  63. Language : English
  64. Default : No
  65. Forced : No
  66.  
  67. Menu
  68. 00:00:00.000 : en:00:00:00.000
  69. 00:05:03.011 : en:00:05:03.011
  70. 00:08:05.068 : en:00:08:05.068
  71. 00:14:03.718 : en:00:14:03.718
  72. 00:19:56.987 : en:00:19:56.987
  73. 00:23:12.683 : en:00:23:12.683
  74. 00:25:56.930 : en:00:25:56.930
  75. 00:29:24.596 : en:00:29:24.596
  76. 00:36:47.956 : en:00:36:47.956
  77. 00:41:06.923 : en:00:41:06.923
  78. 00:43:43.454 : en:00:43:43.454
  79. 00:51:08.190 : en:00:51:08.190
  80. 00:55:14.686 : en:00:55:14.686
  81. 00:59:36.114 : en:00:59:36.114
  82. 01:03:05.699 : en:01:03:05.699
  83. 01:10:44.991 : en:01:10:44.991
  84. 01:13:42.752 : en:01:13:42.752
  85. 01:17:01.283 : en:01:17:01.283
  86. 01:24:41.034 : en:01:24:41.034
  87. 01:28:17.834 : en:01:28:17.834
  88. 01:30:39.059 : en:01:30:39.059
  89. 01:35:22.133 : en:01:35:22.133
  90. 01:39:48.024 : en:01:39:48.024
  91. 01:42:11.208 : en:01:42:11.208
  92. 01:48:48.981 : en:01:48:48.981
  93. 01:52:14.019 : en:01:52:14.019
  94. 01:55:19.663 : en:01:55:19.663
  95. 02:00:05.448 : en:02:00:05.448
RAW Paste Data