iMN0

Transporter.3.2008.Hybrid.1080p.BluRay.x264.DTS-WiKi.mkv

Jul 9th, 2021
119
Never
Not a member of Pastebin yet? Sign Up, it unlocks many cool features!
  1. General
  2. Complete name : Transporter.3.2008.Hybrid.1080p.BluRay.x264.DTS-WiKi.mkv
  3. Format : Matroska
  4. Format version : Version 2
  5. File size : 14.4 GiB
  6. Duration : 1 h 43 min
  7. Overall bit rate : 19.8 Mb/s
  8. Encoded date : UTC 2013-12-30 19:57:26
  9. Writing application : mkvmerge v5.8.0 ('No Sleep / Pillow') built on Sep 2 2012 15:37:04
  10. Writing library : libebml v1.2.3 + libmatroska v1.3.0
  11.  
  12. Video
  13. ID : 1
  14. Format : AVC
  15. Format/Info : Advanced Video Codec
  16. Format profile : High@L4.1
  17. Format settings : CABAC / 5 Ref Frames
  18. Format settings, CABAC : Yes
  19. Format settings, Reference frames : 5 frames
  20. Codec ID : V_MPEG4/ISO/AVC
  21. Duration : 1 h 43 min
  22. Width : 1 920 pixels
  23. Height : 816 pixels
  24. Display aspect ratio : 2.35:1
  25. Frame rate mode : Constant
  26. Frame rate : 23.976 (24000/1001) FPS
  27. Color space : YUV
  28. Chroma subsampling : 4:2:0
  29. Bit depth : 8 bits
  30. Scan type : Progressive
  31. Language : English
  32. Default : Yes
  33. Forced : No
  34.  
  35. Audio #1
  36. ID : 2
  37. Format : DTS
  38. Format/Info : Digital Theater Systems
  39. Codec ID : A_DTS
  40. Duration : 1 h 43 min
  41. Bit rate mode : Constant
  42. Bit rate : 1 509 kb/s
  43. Channel(s) : 6 channels
  44. Channel layout : C L R Ls Rs LFE
  45. Sampling rate : 48.0 kHz
  46. Frame rate : 93.750 FPS (512 SPF)
  47. Bit depth : 24 bits
  48. Compression mode : Lossy
  49. Stream size : 1.10 GiB (8%)
  50. Language : English
  51. Default : Yes
  52. Forced : No
  53.  
  54. Audio #2
  55. ID : 3
  56. Format : DTS
  57. Format/Info : Digital Theater Systems
  58. Codec ID : A_DTS
  59. Duration : 1 h 43 min
  60. Bit rate mode : Constant
  61. Bit rate : 754 kb/s
  62. Channel(s) : 6 channels
  63. Channel layout : C L R Ls Rs LFE
  64. Sampling rate : 48.0 kHz
  65. Frame rate : 93.750 FPS (512 SPF)
  66. Bit depth : 16 bits
  67. Compression mode : Lossy
  68. Stream size : 561 MiB (4%)
  69. Title : Mandarin
  70. Language : Chinese
  71. Default : No
  72. Forced : No
  73.  
  74. Audio #3
  75. ID : 4
  76. Format : AAC LC SBR
  77. Format/Info : Advanced Audio Codec Low Complexity with Spectral Band Replication
  78. Commercial name : HE-AAC
  79. Format settings : Explicit
  80. Codec ID : A_AAC-2
  81. Duration : 1 h 43 min
  82. Channel(s) : 2 channels
  83. Channel layout : L R
  84. Sampling rate : 48.0 kHz
  85. Frame rate : 23.438 FPS (2048 SPF)
  86. Compression mode : Lossy
  87. Delay relative to video : 31 ms
  88. Title : Commentary
  89. Language : English
  90. Default : No
  91. Forced : No
  92.  
  93. Menu
  94. 00:00:00.000 : en:Lower Level Breach
  95. 00:08:04.567 : en:Environmental Business
  96. 00:14:39.420 : en:Precious Cargo
  97. 00:17:05.482 : en:Unfinished Business
  98. 00:22:03.322 : en:We Have a Problem
  99. 00:30:54.269 : en:Detour
  100. 00:35:10.191 : en:Off Course
  101. 00:41:47.755 : en:You're Fired
  102. 00:48:58.310 : en:Lighten Up
  103. 00:56:55.787 : en:Road Warrior
  104. 01:06:43.666 : en:New Plan
  105. 01:11:06.262 : en:Going Home
  106. 01:17:09.333 : en:Rising Above
  107. 01:22:20.185 : en:Train Ride
  108. 01:29:54.472 : en:One More Step
  109. 01:35:40.860 : en:Lunch Catch
RAW Paste Data