iMN0

The.Wolf.of.Wall.Street.2013.1080p.BluRay.DTS.x264-DON.mkv

Jul 16th, 2021
241
Never
Not a member of Pastebin yet? Sign Up, it unlocks many cool features!
  1. General
  2. Unique ID : 220133993282679427483634337530945858933 (0xA59C43D35FCED9299959D1909D45ED75)
  3. Complete name : The.Wolf.of.Wall.Street.2013.1080p.BluRay.DTS.x264-DON.mkv
  4. Format : Matroska
  5. Format version : Version 4
  6. File size : 23.7 GiB
  7. Duration : 2 h 59 min
  8. Overall bit rate : 18.8 Mb/s
  9. Encoded date : UTC 2014-03-19 07:11:21
  10. Writing application : mkvmerge v6.6.0 ('The Edge Of The In Between') built on Dec 1 2013 17:55:00
  11. Writing library : libebml v1.3.0 + libmatroska v1.4.1
  12.  
  13. Video
  14. ID : 1
  15. Format : AVC
  16. Format/Info : Advanced Video Codec
  17. Format profile : High@L4.1
  18. Format settings : CABAC / 5 Ref Frames
  19. Format settings, CABAC : Yes
  20. Format settings, Reference frames : 5 frames
  21. Codec ID : V_MPEG4/ISO/AVC
  22. Duration : 2 h 59 min
  23. Bit rate : 17.0 Mb/s
  24. Width : 1 920 pixels
  25. Height : 800 pixels
  26. Display aspect ratio : 2.40:1
  27. Frame rate mode : Constant
  28. Frame rate : 23.976 (24000/1001) FPS
  29. Color space : YUV
  30. Chroma subsampling : 4:2:0
  31. Bit depth : 8 bits
  32. Scan type : Progressive
  33. Bits/(Pixel*Frame) : 0.460
  34. Stream size : 21.3 GiB (90%)
  35. Writing library : x264 core 142 r2409kMod d6b4e63
  36. Encoding settings : cabac=1 / ref=5 / deblock=1:-3:-3 / analyse=0x3:0x113 / me=umh / subme=11 / psy=1 / fade_compensate=0.00 / psy_rd=1.06:0.00 / mixed_ref=1 / me_range=32 / chroma_me=1 / trellis=2 / 8x8dct=1 / cqm=0 / deadzone=21,11 / fast_pskip=0 / chroma_qp_offset=-2 / threads=6 / lookahead_threads=1 / sliced_threads=0 / nr=0 / decimate=0 / interlaced=0 / bluray_compat=0 / constrained_intra=0 / fgo=0 / bframes=8 / b_pyramid=2 / b_adapt=2 / b_bias=0 / direct=3 / weightb=1 / open_gop=0 / weightp=2 / keyint=250 / keyint_min=24 / scenecut=40 / intra_refresh=0 / rc_lookahead=50 / rc=crf / mbtree=0 / crf=17.5000 / qcomp=0.70 / qpmin=0 / qpmax=69 / qpstep=4 / vbv_maxrate=50000 / vbv_bufsize=62500 / crf_max=0.0 / nal_hrd=none / filler=0 / ip_ratio=1.40 / pb_ratio=1.10 / aq=2:0.85 / zones=1103,1108,crf=15.9/8113,8213,crf=15.9/10025,10170,crf=15.9/10863,10931,crf=15.9/10977,11017,crf=15.9/20568,20700,crf=15.9/24147,24373,crf=15.9/25473,25696,crf=15.9/25911,25954,crf=15.9/26138,26204,crf=15.9/26321,26454,crf=15.9/26547,26687,crf=15.9/27037,27103,crf=15.9/27183,27306,crf=15.9/27362,27432,crf=15.9/27472,27544,crf=15.9/27582,27638,crf=15.9/27676,27748,crf=15.9/27801,27942,crf=15.9/28047,28211,crf=15.9/28340,28376,crf=15.9/31244,31371,crf=15.9/31457,31479,crf=15.9/31565,31692,crf=15.9/44708,44805,crf=15.9/58628,58688,crf=15.9/72470,72669,crf=15.9/72987,73086,crf=15.9/73419,73481,crf=15.9/73533,73641,crf=15.9/73762,73884,crf=15.9/75307,75515,crf=15.9/75907,76065,crf=15.9/76220,76291,crf=15.9/76461,76615,crf=15.9/93411,93468,crf=15.9/96276,96295,crf=15.9/96395,96498,crf=15.9/97269,97762,crf=15.9/101078,101104,crf=15.9/101121,101130,crf=15.9/115747,115901,crf=15.9/115945,116064,crf=15.9/116130,116200,crf=15.9/116447,116794,crf=15.9/117330,117628,crf=15.9/118628,118810,crf=15.9/147330,147383,crf=15.9/147693,147730,crf=15.9/147930,148150,crf=15.9/148203,148233,crf=15.9/148261,148354,crf=15.9/148909,149051,crf=15.9/149196,149225,crf=15.9/149464,149596,crf=15.9/149765,149824,crf=15.9/150019,150292,crf=15.9/150472,150502,crf=15.9/159930,160437,crf=15.9/166545,166876,crf=15.9/197565,197670,crf=15.9/197706,197822,crf=15.9/198677,198718,crf=15.9/202404,202445,crf=15.9/202494,202583,crf=15.9/103275,203391,crf=15.9/203429,203581,crf=15.9/203698,203765,crf=15.9/203981,204053,crf=15.9/204117,204182,crf=15.9/204227,204259,crf=15.9/204422,204811,crf=15.9/204841,205006,crf=15.9/205048,205166,crf=15.9/205223,205373,crf=15.9/205512,205704,crf=15.9/208712,208779,crf=15.9/208872,208915,crf=15.9/211374,211480,crf=15.9/217277,217289,crf=15.9/217354,217378,crf=15.9/217402,217543,crf=15.9/218954,219064,crf=15.9/219247,219340,crf=15.9/219566,219761,crf=15.9/220242,220314,crf=15.9/221821,221847,crf=15.9/232880,232903,crf=15.9/235175,235198,crf=15.9/245425,245474,crf=15.9
  37. Language : English
  38. Default : Yes
  39. Forced : No
  40.  
  41. Audio
  42. ID : 2
  43. Format : DTS
  44. Format/Info : Digital Theater Systems
  45. Codec ID : A_DTS
  46. Duration : 2 h 59 min
  47. Bit rate mode : Constant
  48. Bit rate : 1 509 kb/s
  49. Channel(s) : 6 channels
  50. Channel layout : C L R Ls Rs LFE
  51. Sampling rate : 48.0 kHz
  52. Frame rate : 93.750 FPS (512 SPF)
  53. Bit depth : 24 bits
  54. Compression mode : Lossy
  55. Stream size : 1.90 GiB (8%)
  56. Language : English
  57. Default : Yes
  58. Forced : No
  59.  
  60. Text #1
  61. ID : 3
  62. Format : UTF-8
  63. Codec ID : S_TEXT/UTF8
  64. Codec ID/Info : UTF-8 Plain Text
  65. Language : French
  66. Default : No
  67. Forced : No
  68.  
  69. Text #2
  70. ID : 4
  71. Format : UTF-8
  72. Codec ID : S_TEXT/UTF8
  73. Codec ID/Info : UTF-8 Plain Text
  74. Language : Spanish
  75. Default : No
  76. Forced : No
  77.  
  78. Text #3
  79. ID : 5
  80. Format : UTF-8
  81. Codec ID : S_TEXT/UTF8
  82. Codec ID/Info : UTF-8 Plain Text
  83. Title : SDH
  84. Language : English
  85. Default : No
  86. Forced : No
  87.  
  88. Text #4
  89. ID : 6
  90. Format : UTF-8
  91. Codec ID : S_TEXT/UTF8
  92. Codec ID/Info : UTF-8 Plain Text
  93. Language : English
  94. Default : No
  95. Forced : No
  96.  
  97. Menu
  98. 00:00:00.000 : en:00:00:00.000
  99. 00:07:55.934 : en:00:07:55.934
  100. 00:14:17.857 : en:00:14:17.857
  101. 00:21:31.415 : en:00:21:31.415
  102. 00:32:08.093 : en:00:32:08.093
  103. 00:40:14.495 : en:00:40:14.495
  104. 00:48:33.577 : en:00:48:33.577
  105. 00:55:21.777 : en:00:55:21.777
  106. 01:01:56.046 : en:01:01:56.046
  107. 01:07:00.475 : en:01:07:00.475
  108. 01:11:28.910 : en:01:11:28.910
  109. 01:19:49.868 : en:01:19:49.868
  110. 01:29:06.883 : en:01:29:06.883
  111. 01:37:47.403 : en:01:37:47.403
  112. 01:45:11.931 : en:01:45:11.931
  113. 01:54:39.998 : en:01:54:39.998
  114. 02:03:20.184 : en:02:03:20.184
  115. 02:07:28.015 : en:02:07:28.015
  116. 02:17:12.850 : en:02:17:12.850
  117. 02:25:25.467 : en:02:25:25.467
  118. 02:32:08.619 : en:02:32:08.619
  119. 02:36:38.723 : en:02:36:38.723
  120. 02:44:19.266 : en:02:44:19.266
  121. 02:53:04.291 : en:02:53:04.291
RAW Paste Data