SHARE
TWEET

Untitled

a guest Apr 25th, 2016 234 Never
Not a member of Pastebin yet? Sign Up, it unlocks many cool features!
  1. root@desktop:/tmp/hls/hdmi# ffprobe -loglevel 40 -i http://192.168.1.168/hdmiffprobe version N-79266-gcab9661 Copyright (c) 2007-2016 the FFmpeg developers
  2.   built with gcc 4.8 (Ubuntu/Linaro 4.8.1-10ubuntu9)
  3.   configuration: --prefix=/root/ffmpeg_build --pkg-config-flags=--static --extra-cflags=-I/root/ffmpeg_build/include --extra-ldflags=-L/root/ffmpeg_build/lib --bindir=/root/bin --enable-gpl --enable-libass --enable-libfdk-aac --enable-libx264 --enable-nonfree
  4.   libavutil      55. 20.100 / 55. 20.100
  5.   libavcodec     57. 34.100 / 57. 34.100
  6.   libavformat    57. 31.100 / 57. 31.100
  7.   libavdevice    57.  0.101 / 57.  0.101
  8.   libavfilter     6. 41.100 /  6. 41.100
  9.   libswscale      4.  1.100 /  4.  1.100
  10.   libswresample   2.  0.101 /  2.  0.101
  11.   libpostproc    54.  0.100 / 54.  0.100
  12. [h264 @ 0xb443520] non-existing PPS 0 referenced
  13.     Last message repeated 1 times
  14. [h264 @ 0xb443520] decode_slice_header error
  15. [h264 @ 0xb443520] no frame!
  16. [h264 @ 0xb443520] non-existing PPS 0 referenced
  17.     Last message repeated 1 times
  18. [h264 @ 0xb443520] decode_slice_header error
  19. [h264 @ 0xb443520] no frame!
  20. [h264 @ 0xb443520] non-existing PPS 0 referenced
  21.     Last message repeated 1 times
  22. [h264 @ 0xb443520] decode_slice_header error
  23. [h264 @ 0xb443520] no frame!
  24. [h264 @ 0xb443520] non-existing PPS 0 referenced
  25.     Last message repeated 1 times
  26. [h264 @ 0xb443520] decode_slice_header error
  27. [h264 @ 0xb443520] no frame!
  28. [h264 @ 0xb443520] non-existing PPS 0 referenced
  29.     Last message repeated 1 times
  30. [h264 @ 0xb443520] decode_slice_header error
  31. [h264 @ 0xb443520] no frame!
  32. [h264 @ 0xb443520] non-existing PPS 0 referenced
  33.     Last message repeated 1 times
  34. [h264 @ 0xb443520] decode_slice_header error
  35. [h264 @ 0xb443520] no frame!
  36. [h264 @ 0xb443520] non-existing PPS 0 referenced
  37.     Last message repeated 1 times
  38. [h264 @ 0xb443520] decode_slice_header error
  39. [h264 @ 0xb443520] no frame!
  40. [h264 @ 0xb443520] non-existing PPS 0 referenced
  41.     Last message repeated 1 times
  42. [h264 @ 0xb443520] decode_slice_header error
  43. [h264 @ 0xb443520] no frame!
  44. [h264 @ 0xb443520] non-existing PPS 0 referenced
  45.     Last message repeated 1 times
  46. [h264 @ 0xb443520] decode_slice_header error
  47. [h264 @ 0xb443520] no frame!
  48. [h264 @ 0xb443520] non-existing PPS 0 referenced
  49.     Last message repeated 1 times
  50. [h264 @ 0xb443520] decode_slice_header error
  51. [h264 @ 0xb443520] no frame!
  52. [h264 @ 0xb443520] non-existing PPS 0 referenced
  53.     Last message repeated 1 times
  54. [h264 @ 0xb443520] decode_slice_header error
  55. [h264 @ 0xb443520] no frame!
  56. [h264 @ 0xb443520] non-existing PPS 0 referenced
  57.     Last message repeated 1 times
  58. [h264 @ 0xb443520] decode_slice_header error
  59. [h264 @ 0xb443520] no frame!
  60. [h264 @ 0xb443520] non-existing PPS 0 referenced
  61.     Last message repeated 1 times
  62. [h264 @ 0xb443520] decode_slice_header error
  63. [h264 @ 0xb443520] no frame!
  64. [h264 @ 0xb443520] non-existing PPS 0 referenced
  65.     Last message repeated 1 times
  66. [h264 @ 0xb443520] decode_slice_header error
  67. [h264 @ 0xb443520] no frame!
  68. [h264 @ 0xb443520] non-existing PPS 0 referenced
  69.     Last message repeated 1 times
  70. [h264 @ 0xb443520] decode_slice_header error
  71. [h264 @ 0xb443520] no frame!
  72. [h264 @ 0xb443520] non-existing PPS 0 referenced
  73.     Last message repeated 1 times
  74. [h264 @ 0xb443520] decode_slice_header error
  75. [h264 @ 0xb443520] no frame!
  76. [h264 @ 0xb443520] non-existing PPS 0 referenced
  77.     Last message repeated 1 times
  78. [h264 @ 0xb443520] decode_slice_header error
  79. [h264 @ 0xb443520] no frame!
  80. [h264 @ 0xb443520] non-existing PPS 0 referenced
  81.     Last message repeated 1 times
  82. [h264 @ 0xb443520] decode_slice_header error
  83. [h264 @ 0xb443520] no frame!
  84. [h264 @ 0xb443520] non-existing PPS 0 referenced
  85.     Last message repeated 1 times
  86. [h264 @ 0xb443520] decode_slice_header error
  87. [h264 @ 0xb443520] no frame!
  88. [h264 @ 0xb443520] non-existing PPS 0 referenced
  89.     Last message repeated 1 times
  90. [h264 @ 0xb443520] decode_slice_header error
  91. [h264 @ 0xb443520] no frame!
  92. [mpegts @ 0xb4359e0] max_analyze_duration 5000000 reached at 5013600 microseconds st:1
  93. Input #0, mpegts, from 'http://192.168.1.168/hdmi':
  94.   Duration: N/A, start: 5282.640256, bitrate: N/A
  95.   Program 1
  96.     Stream #0:0[0x44]: Video: h264 (Baseline), 1 reference frame ([27][0][0][0] / 0x001B), yuv420p, 1920x1080 (1920x1088), 29.97 fps, 29.97 tbr, 90k tbn, 180k tbc
  97.     Stream #0:1[0x45]: Audio: aac (LC) ([15][0][0][0] / 0x000F), 44100 Hz, stereo, fltp, 175 kb/s
RAW Paste Data
We use cookies for various purposes including analytics. By continuing to use Pastebin, you agree to our use of cookies as described in the Cookies Policy. OK, I Understand
 
Top