Advertisement
Asmodexia

Knock.at.the.Cabin.2023.1080p.BDRip.AVC.FLAC7.1.1h40m08s.DVD9-Asmo

May 26th, 2023
3,297
0
Never
Not a member of Pastebin yet? Sign Up, it unlocks many cool features!
JSON 5.62 KB | None | 0 0
  1. Knock.at.the.Cabin.2023.1080p.BDRip.AVC.FLAC7.1.1h40m08s.DVD9-Asmo
  2.  
  3. Audio FLAC converted from TrueHD.7.1.Atmos, 24 bits, 3071 kb/s
  4.  
  5. File size matched to DVD-DL (DVD9)
  6.  
  7. Video
  8. ID                                       : 1
  9. Format                                   : AVC
  10. Format/Info                              : Advanced Video Codec
  11. Format profile                           : High@L4
  12. Format settings                          : CABAC / 5 Ref Frames
  13. Format settings, CABAC                   : Yes
  14. Format settings, Reference frames        : 5 frames
  15. Codec ID                                 : V_MPEG4/ISO/AVC
  16. Duration                                 : 1 h 40 min
  17. Bit rate                                 : 9 571 kb/s
  18. Width                                    : 1 920 pixels
  19. Height                                   : 804 pixels
  20. Display aspect ratio                     : 2.40:1
  21. Frame rate mode                          : Constant
  22. Frame rate                               : 23.976 (24000/1001) FPS
  23. Color space                              : YUV
  24. Chroma subsampling                       : 4:2:0
  25. Bit depth                                : 8 bits
  26. Scan type                                : Progressive
  27. Bits/(Pixel*Frame)                       : 0.259
  28. Stream size                              : 6.69 GiB (84%)
  29. Writing library                          : x264 core 163 r3060 5db6aa6
  30. Encoding settings                        : cabac=1 / ref=5 / deblock=1:-1:-1 / analyse=0x3:0x113 / me=hex / subme=8 / psy=1 / psy_rd=1,00:0,15 / mixed_ref=1 / me_range=16 / chroma_me=1 / trellis=2 / 8x8dct=1 / cqm=0 / deadzone=21,11 / fast_pskip=1 / chroma_qp_offset=-3 / threads=18 / lookahead_threads=3 / sliced_threads=0 / nr=0 / decimate=1 / interlaced=0 / bluray_compat=0 / constrained_intra=0 / bframes=3 / b_pyramid=2 / b_adapt=1 / b_bias=0 / direct=3 / weightb=1 / open_gop=0 / weightp=2 / keyint=240 / keyint_min=24 / scenecut=40 / intra_refresh=0 / rc_lookahead=50 / rc=2pass / mbtree=1 / bitrate=9571 / ratetol=1,0 / qcomp=0,60 / qpmin=0 / qpmax=69 / qpstep=4 / cplxblur=20,0 / qblur=0,5 / ip_ratio=1,40 / aq=1:1,00
  31. Language                                 : English
  32. Default                                  : Yes
  33. Forced                                   : No
  34. Color range                              : Limited
  35. Color primaries                          : BT.709
  36. Transfer characteristics                 : BT.709
  37. Matrix coefficients                      : BT.709
  38.  
  39. Audio
  40. ID                                       : 2
  41. Format                                   : FLAC
  42. Format/Info                              : Free Lossless Audio Codec
  43. Codec ID                                 : A_FLAC
  44. Duration                                 : 1 h 40 min
  45. Bit rate mode                            : Variable
  46. Bit rate                                 : 1 782 kb/s
  47. Channel(s)                               : 8 channels
  48. Channel layout                           : L R C LFE Lb Rb Ls Rs
  49. Sampling rate                            : 48.0 kHz
  50. Frame rate                               : 10.417 FPS (4608 SPF)
  51. Bit depth                                : 16 bits
  52. Compression mode                         : Lossless
  53. Stream size                              : 1.25 GiB (16%)
  54. Writing library                          : Lavf60.5.100
  55. Language                                 : English
  56. Default                                  : Yes
  57. Forced                                   : No
  58.  
  59. Text #1
  60. ID                                       : 3
  61. Format                                   : UTF-8
  62. Codec ID                                 : S_TEXT/UTF8
  63. Codec ID/Info                            : UTF-8 Plain Text
  64. Duration                                 : 1 h 39 min
  65. Bit rate                                 : 42 b/s
  66. Count of elements                        : 1169
  67. Stream size                              : 31.2 KiB (0%)
  68. Language                                 : Polish
  69. Default                                  : No
  70. Forced                                   : No
  71.  
  72. Text #2
  73. ID                                       : 4
  74. Format                                   : UTF-8
  75. Codec ID                                 : S_TEXT/UTF8
  76. Codec ID/Info                            : UTF-8 Plain Text
  77. Duration                                 : 1 h 30 min
  78. Bit rate                                 : 62 b/s
  79. Count of elements                        : 1207
  80. Stream size                              : 41.4 KiB (0%)
  81. Language                                 : English
  82. Default                                  : No
  83. Forced                                   : No
  84.  
  85. Menu
  86. 00:00:00.000                             : :Chapter 1
  87. 00:03:33.714                             : :Chapter 2
  88. 00:09:30.570                             : :Chapter 3
  89. 00:14:10.350                             : :Chapter 4
  90. 00:18:40.119                             : :Chapter 5
  91. 00:25:54.553                             : :Chapter 6
  92. 00:29:51.790                             : :Chapter 7
  93. 00:35:56.655                             : :Chapter 8
  94. 00:39:40.378                             : :Chapter 9
  95. 00:45:17.215                             : :Chapter 10
  96. 00:50:42.039                             : :Chapter 11
  97. 00:54:15.753                             : :Chapter 12
  98. 01:00:06.103                             : :Chapter 13
  99. 01:04:27.364                             : :Chapter 14
  100. 01:10:33.229                             : :Chapter 15
  101. 01:15:26.022                             : :Chapter 16
  102. 01:19:29.265                             : :Chapter 17
  103. 01:22:34.450                             : :Chapter 18
  104. 01:28:50.325                             : :Chapter 19
  105. 01:33:23.098                             : :Chapter 20
  106.  
Advertisement
Add Comment
Please, Sign In to add comment
Advertisement