Guest User

Untitled

a guest
Nov 24th, 2021
33
Never
Not a member of Pastebin yet? Sign Up, it unlocks many cool features!
  1. Общее
  2. Уникальный идентификатор : 233085500960640084284393841766825366575 (0xAF5AA27481DB95E18837CD1A50C6942F)
  3. Полное имя : D:\Раздача\Ponchary.2021.BDRemux 1080p.ExKinoRay.mkv
  4. Формат : Matroska
  5. Версия формата : Version 4 / Version 2
  6. Размер файла : 11,1 Гбайт
  7. Продолжительность : 1 ч. 24 м.
  8. Общий поток : 18,9 Мбит/сек
  9. Название фильма : Extinct.2021.BDRemux 1080p.grab777 & ExKinoRay
  10. Дата кодирования : UTC 2021-11-24 22:58:20
  11. Программа кодирования : mkvmerge v7.3.0 ('Nouages') 64bit built on Oct 22 2014 18:53:34
  12. Библиотека кодирования : libebml v1.3.0 + libmatroska v1.4.1
  13.  
  14. Видео
  15. Идентификатор : 1
  16. Формат : VC-1
  17. Профиль формата : Advanced@L3
  18. Идентификатор кодека : V_MS/VFW/FOURCC / WVC1
  19. Идентификатор кодека/Подсказка : Microsoft
  20. Продолжительность : 1 ч. 24 м.
  21. Битрейт : 18,0 Мбит/сек
  22. Ширина : 1920 пикселей
  23. Высота : 1080 пикселей
  24. Соотношение сторон : 16:9
  25. Режим частоты кадров : Постоянный
  26. Частота кадров : 24,000 кадра/сек
  27. Цветовое пространство : YUV
  28. Субдискретизация насыщенности : 4:2:0
  29. Битовая глубина : 8 бит
  30. Тип развёртки : Прогрессивная
  31. Метод сжатия : С потерями
  32. Бит/(Пиксели*Кадры) : 0.362
  33. Размер потока : 10,6 Гбайт (95%)
  34. Заголовок : by grab777
  35. Язык : English
  36. Default : Да
  37. Forced : Нет
  38.  
  39. Аудио #1
  40. Идентификатор : 2
  41. Формат : AC-3
  42. Формат/Информация : Audio Coding 3
  43. Параметр Endianness формата : Big
  44. Идентификатор кодека : A_AC3
  45. Продолжительность : 1 ч. 24 м.
  46. Вид битрейта : Постоянный
  47. Битрейт : 448 Кбит/сек
  48. Каналы : 6 каналов
  49. Расположение каналов : Front: L C R, Side: L R, LFE
  50. Частота : 48,0 КГц
  51. Частота кадров : 31,250 кадров/сек (1536 SPF)
  52. Битовая глубина : 16 бит
  53. Метод сжатия : С потерями
  54. Размер потока : 270 Мбайт (2%)
  55. Заголовок : DUB (CPI Films)
  56. Язык : Russian
  57. ServiceKind/String : Complete Main
  58. Default : Да
  59. Forced : Нет
  60.  
  61. Аудио #2
  62. Идентификатор : 3
  63. Формат : AC-3
  64. Формат/Информация : Audio Coding 3
  65. Параметр Endianness формата : Big
  66. Идентификатор кодека : A_AC3
  67. Продолжительность : 1 ч. 24 м.
  68. Вид битрейта : Постоянный
  69. Битрейт : 448 Кбит/сек
  70. Каналы : 6 каналов
  71. Расположение каналов : Front: L C R, Side: L R, LFE
  72. Частота : 48,0 КГц
  73. Частота кадров : 31,250 кадров/сек (1536 SPF)
  74. Битовая глубина : 16 бит
  75. Метод сжатия : С потерями
  76. Размер потока : 270 Мбайт (2%)
  77. Заголовок : Original
  78. Язык : English
  79. ServiceKind/String : Complete Main
  80. Default : Нет
  81. Forced : Нет
  82.  
  83. Текст #1
  84. Идентификатор : 4
  85. Формат : UTF-8
  86. Идентификатор кодека : S_TEXT/UTF8
  87. Идентификатор кодека/Информация : UTF-8 Plain Text
  88. Продолжительность : 1 ч. 18 м.
  89. Битрейт : 2 бит/сек
  90. ElementCount : 24
  91. Размер потока : 1,70 Кбайт (0%)
  92. Заголовок : Forced
  93. Язык : Russian
  94. Default : Да
  95. Forced : Нет
  96.  
  97. Текст #2
  98. Идентификатор : 5
  99. Формат : UTF-8
  100. Идентификатор кодека : S_TEXT/UTF8
  101. Идентификатор кодека/Информация : UTF-8 Plain Text
  102. Продолжительность : 1 ч. 20 м.
  103. Битрейт : 93 бит/сек
  104. ElementCount : 1146
  105. Размер потока : 55,6 Кбайт (0%)
  106. Заголовок : Full
  107. Язык : Russian
  108. Default : Нет
  109. Forced : Нет
  110.  
  111. Текст #3
  112. Идентификатор : 6
  113. Формат : UTF-8
  114. Идентификатор кодека : S_TEXT/UTF8
  115. Идентификатор кодека/Информация : UTF-8 Plain Text
  116. Продолжительность : 1 ч. 21 м.
  117. Битрейт : 67 бит/сек
  118. ElementCount : 1170
  119. Размер потока : 40,2 Кбайт (0%)
  120. Заголовок : Full
  121. Язык : English
  122. Default : Нет
  123. Forced : Нет
  124.  
  125. Текст #4
  126. Идентификатор : 7
  127. Формат : PGS
  128. Режим смешивания : zlib
  129. Идентификатор кодека : S_HDMV/PGS
  130. Идентификатор кодека/Информация : Picture based subtitle format used on BDs/HD-DVDs
  131. Продолжительность : 125 мс.
  132. Битрейт : 83,3 Кбит/сек
  133. ElementCount : 2
  134. Размер потока : 1,27 Кбайт (0%)
  135. Заголовок : PGS
  136. Язык : Norwegian
  137. Default : Нет
  138. Forced : Нет
  139.  
  140. Меню
  141. 00:00:00.000 : en:Chapter 01
  142. 00:15:43.000 : en:Chapter 02
  143. 00:30:47.000 : en:Chapter 03
  144. 00:43:49.000 : en:Chapter 04
  145. 00:59:09.000 : en:Chapter 05
  146. 01:12:11.000 : en:Chapter 06
RAW Paste Data