daily pastebin goal
57%
SHARE
TWEET

The Ballad of Lefty Brown BluRay 720p

dirtyharrys Oct 11th, 2018 63 Never
Not a member of Pastebin yet? Sign Up, it unlocks many cool features!
  1. General
  2. Unique ID                   : 177549351506148954810628262662623479676 (0x8592C2E268A11E86A13B0DD2C5F8477C)
  3. Complete name               : E:\QlJSVEJvZkxlZnR5QnJvd24.mkv
  4. Format                      : Matroska
  5. Format version              : Version 4 / Version 2
  6. File size                   : 1.72 GiB
  7. Duration                    : 1 h 51 min
  8. Overall bit rate            : 2 205 kb/s
  9. Movie name                  : The Ballad of Lefty Brown BR-RIP / The Ballad of Lefty Brown BR-RIP
  10. Encoded date                : UTC 2018-10-11 07:20:36
  11. Writing application         : mkvmerge v12.0.0 ('Trust / Lust') 32bit
  12. Writing library             : libebml v1.3.4 + libmatroska v1.4.5
  13. Copyright                   : Movies HDs 2018
  14. ARTIST                      : HarshLearner
  15.  
  16. Video
  17. ID                          : 1
  18. Format                      : AVC
  19. Format/Info                 : Advanced Video Codec
  20. Format profile              : High@L4.1
  21. Format settings             : CABAC / 4 Ref Frames
  22. Format settings, CABAC      : Yes
  23. Format settings, ReFrames   : 4 frames
  24. Codec ID                    : V_MPEG4/ISO/AVC
  25. Duration                    : 1 h 51 min
  26. Bit rate                    : 1 500 kb/s
  27. Width                       : 1 280 pixels
  28. Height                      : 534 pixels
  29. Display aspect ratio        : 2.40:1
  30. Original display aspect rat : 2.40:1
  31. Frame rate mode             : Constant
  32. Frame rate                  : 23.976 (23976/1000) FPS
  33. Color space                 : YUV
  34. Chroma subsampling          : 4:2:0
  35. Bit depth                   : 8 bits
  36. Scan type                   : Progressive
  37. Bits/(Pixel*Frame)          : 0.092
  38. Stream size                 : 1.17 GiB (68%)
  39. Title                       : The Ballad of Lefty Brown
  40. Writing library             : x264 core 152 r2851M ba24899
  41. Default                     : Yes
  42. Forced                      : No
  43.  
  44. Audio #1
  45. ID                          : 2
  46. Format                      : AC-3
  47. Format/Info                 : Audio Coding 3
  48. Commercial name             : Dolby Digital
  49. Codec ID                    : A_AC3
  50. Duration                    : 1 h 51 min
  51. Bit rate mode               : Constant
  52. Bit rate                    : 448 kb/s
  53. Channel(s)                  : 6 channels
  54. Channel positions           : Front: L C R, Side: L R, LFE
  55. Sampling rate               : 48.0 kHz
  56. Frame rate                  : 31.250 FPS (1536 SPF)
  57. Bit depth                   : 16 bits
  58. Compression mode            : Lossy
  59. Stream size                 : 358 MiB (20%)
  60. Language                    : English
  61. Service kind                : Complete Main
  62. Default                     : No
  63. Forced                      : No
  64.  
  65. Audio #2
  66. ID                          : 3
  67. Format                      : AC-3
  68. Format/Info                 : Audio Coding 3
  69. Commercial name             : Dolby Digital
  70. Codec ID                    : A_AC3
  71. Duration                    : 1 h 51 min
  72. Bit rate mode               : Constant
  73. Bit rate                    : 256 kb/s
  74. Channel(s)                  : 2 channels
  75. Channel positions           : Front: L R
  76. Sampling rate               : 48.0 kHz
  77. Frame rate                  : 31.250 FPS (1536 SPF)
  78. Bit depth                   : 16 bits
  79. Compression mode            : Lossy
  80. Stream size                 : 205 MiB (12%)
  81. Language                    : Spanish
  82. Service kind                : Complete Main
  83. Default                     : Yes
  84. Forced                      : Yes
  85.  
  86. Text #1
  87. ID                          : 4
  88. Format                      : UTF-8
  89. Codec ID                    : S_TEXT/UTF8
  90. Codec ID/Info               : UTF-8 Plain Text
  91. Duration                    : 1 h 51 min
  92. Bit rate                    : 47 b/s
  93. Count of elements           : 1343
  94. Stream size                 : 38.4 KiB (0%)
  95. Title                       : SDH
  96. Language                    : English
  97. Default                     : No
  98. Forced                      : No
  99.  
  100. Text #2
  101. ID                          : 5
  102. Format                      : UTF-8
  103. Codec ID                    : S_TEXT/UTF8
  104. Codec ID/Info               : UTF-8 Plain Text
  105. Duration                    : 1 h 50 min
  106. Bit rate                    : 38 b/s
  107. Count of elements           : 1071
  108. Stream size                 : 31.5 KiB (0%)
  109. Language                    : Spanish
  110. Default                     : Yes
  111. Forced                      : Yes
  112.  
  113. Text #3
  114. ID                          : 6
  115. Format                      : UTF-8
  116. Codec ID                    : S_TEXT/UTF8
  117. Codec ID/Info               : UTF-8 Plain Text
  118. Duration                    : 1 h 20 min
  119. Bit rate                    : 0 b/s
  120. Count of elements           : 4
  121. Stream size                 : 139 Bytes (0%)
  122. Language                    : Spanish
  123. Default                     : No
  124. Forced                      : No
  125.  
  126. Menu
  127. 00:00:00.000                : :00:00:00.000
  128. 00:07:42.379                : :00:07:42.379
  129. 00:15:50.825                : :00:15:50.825
  130. 00:21:33.125                : :00:21:33.000
  131. 00:28:02.931                : :00:28:02.931
  132. 00:36:33.149                : :00:36:33.024
  133. 00:40:25.006                : :00:40:25.006
  134. 00:49:09.738                : :00:49:09.738
  135. 00:59:03.874                : :00:59:03.873
  136. 01:05:58.955                : :01:05:58.913
  137. 01:14:05.399                : :01:14:05.357
  138. 01:21:15.537                : :01:21:15.537
  139. 01:26:11.833                : :01:26:11.833
  140. 01:29:32.784                : :01:29:32.784
  141. 01:34:18.111                : :01:34:18.027
  142. 01:41:33.879                : :01:41:33.879
RAW Paste Data
We use cookies for various purposes including analytics. By continuing to use Pastebin, you agree to our use of cookies as described in the Cookies Policy. OK, I Understand
 
Top