GrabHD

Untitled

Mar 4th, 2020
101
Never
Not a member of Pastebin yet? Sign Up, it unlocks many cool features!
  1. General
  2. Unique ID : 300312591827537262066862381599167135976 (0xE1EE19F09D09A53137DF7C43BFB8C0E8)
  3. Complete name : E:Video111Little.Women.2019.WEB-DL.1080p.seleZen.mkv
  4. Format : Matroska
  5. Format version : Version 4
  6. File size : 5.72 GiB
  7. Duration : 2 h 14 min
  8. Overall bit rate : 6 074 kb/s
  9. Movie name : Little Women 2019 from селезень
  10. Encoded date : UTC 2020-03-04 19:49:29
  11. Writing application : mkvmerge v40.0.0 ('Old Town Road + Pony') 64-bit
  12. Writing library : libebml v1.3.9 + libmatroska v1.5.2
  13. Cover : Yes
  14. Attachments : cover.jpg
  15.  
  16. Video
  17. ID : 1
  18. Format : AVC
  19. Format/Info : Advanced Video Codec
  20. Format profile : High@L4
  21. Format settings : CABAC / 4 Ref Frames
  22. Format settings, CABAC : Yes
  23. Format settings, Reference : 4 frames
  24. Codec ID : V_MPEG4/ISO/AVC
  25. Duration : 2 h 14 min
  26. Bit rate : 5 177 kb/s
  27. Width : 1 920 pixels
  28. Height : 1 032 pixels
  29. Display aspect ratio : 1.85:1
  30. Frame rate mode : Constant
  31. Frame rate : 23.976 (24000/1001) FPS
  32. Color space : YUV
  33. Chroma subsampling : 4:2:0
  34. Bit depth : 8 bits
  35. Scan type : Progressive
  36. Bits/(Pixel*Frame) : 0.109
  37. Stream size : 4.88 GiB (85%)
  38. Language : English
  39. Default : Yes
  40. Forced : No
  41. Color range : Limited
  42. Color primaries : BT.709
  43. Transfer characteristics : BT.709
  44. Matrix coefficients : BT.709
  45.  
  46. Audio #1
  47. ID : 2
  48. Format : AC-3
  49. Format/Info : Audio Coding 3
  50. Commercial name : Dolby Digital
  51. Codec ID : A_AC3
  52. Duration : 2 h 14 min
  53. Bit rate mode : Constant
  54. Bit rate : 384 kb/s
  55. Channel(s) : 6 channels
  56. Channel layout : L R C LFE Ls Rs
  57. Sampling rate : 48.0 kHz
  58. Frame rate : 31.250 FPS (1536 SPF)
  59. Compression mode : Lossy
  60. Stream size : 370 MiB (6%)
  61. Title : iTunes
  62. Language : Russian
  63. Service kind : Complete Main
  64. Default : Yes
  65. Forced : Yes
  66.  
  67. Audio #2
  68. ID : 3
  69. Format : AC-3
  70. Format/Info : Audio Coding 3
  71. Commercial name : Dolby Digital
  72. Codec ID : A_AC3
  73. Duration : 2 h 14 min
  74. Bit rate mode : Constant
  75. Bit rate : 384 kb/s
  76. Channel(s) : 6 channels
  77. Channel layout : L R C LFE Ls Rs
  78. Sampling rate : 48.0 kHz
  79. Frame rate : 31.250 FPS (1536 SPF)
  80. Compression mode : Lossy
  81. Stream size : 370 MiB (6%)
  82. Title : Original
  83. Language : English
  84. Service kind : Complete Main
  85. Default : No
  86. Forced : No
  87.  
  88. Audio #3
  89. ID : 4
  90. Format : AAC LC
  91. Format/Info : Advanced Audio Codec Low Complexity
  92. Codec ID : A_AAC-2
  93. Duration : 2 h 14 min
  94. Bit rate : 126 kb/s
  95. Channel(s) : 2 channels
  96. Channel layout : L R
  97. Sampling rate : 48.0 kHz
  98. Frame rate : 46.875 FPS (1024 SPF)
  99. Compression mode : Lossy
  100. Stream size : 121 MiB (2%)
  101. Title : iTunes
  102. Language : Ukrainian
  103. Default : No
  104. Forced : No
  105.  
  106. Text #1
  107. ID : 5
  108. Format : UTF-8
  109. Codec ID : S_TEXT/UTF8
  110. Codec ID/Info : UTF-8 Plain Text
  111. Duration : 2 h 13 min
  112. Bit rate : 0 b/s
  113. Count of elements : 7
  114. Stream size : 381 Bytes (0%)
  115. Title : Forced
  116. Language : Russian
  117. Default : Yes
  118. Forced : Yes
  119.  
  120. Text #2
  121. ID : 6
  122. Format : UTF-8
  123. Codec ID : S_TEXT/UTF8
  124. Codec ID/Info : UTF-8 Plain Text
  125. Duration : 2 h 13 min
  126. Bit rate : 89 b/s
  127. Count of elements : 1730
  128. Stream size : 87.4 KiB (0%)
  129. Title : Full
  130. Language : Russian
  131. Default : No
  132. Forced : No
  133.  
  134. Text #3
  135. ID : 7
  136. Format : UTF-8
  137. Codec ID : S_TEXT/UTF8
  138. Codec ID/Info : UTF-8 Plain Text
  139. Duration : 2 h 5 min
  140. Bit rate : 67 b/s
  141. Count of elements : 1664
  142. Stream size : 62.2 KiB (0%)
  143. Title : Full
  144. Language : English
  145. Default : No
  146. Forced : No
  147.  
  148. Text #4
  149. ID : 8
  150. Format : UTF-8
  151. Codec ID : S_TEXT/UTF8
  152. Codec ID/Info : UTF-8 Plain Text
  153. Duration : 2 h 8 min
  154. Bit rate : 70 b/s
  155. Count of elements : 2143
  156. Stream size : 66.0 KiB (0%)
  157. Title : SDH
  158. Language : English
  159. Default : No
  160. Forced : No
  161.  
  162. Menu
  163. 00:00:00.000 : en:1
  164. 00:06:02.612 : en:2
  165. 00:12:05.599 : en:3
  166. 00:24:24.628 : en:4
  167. 00:30:18.063 : en:5
  168. 00:38:39.272 : en:6
  169. 00:47:06.237 : en:7
  170. 00:57:35.657 : en:8
  171. 01:07:18.113 : en:9
  172. 01:16:24.533 : en:10
  173. 01:20:07.129 : en:11
  174. 01:25:45.341 : en:12
  175. 01:29:35.320 : en:13
  176. 01:39:53.688 : en:14
  177. 01:49:37.480 : en:15
  178. 02:06:21.442 : en:16
RAW Paste Data