GrabHD

Untitled

Mar 4th, 2020
97
Never
Not a member of Pastebin yet? Sign Up, it unlocks many cool features!
  1. Общее
  2. Уникальный идентификатор : 182157522412342291520988024424284115780 (0x890A43405E472A04AD030175AFDD5344)
  3. Полное имя : D:\Раздача\Halepa Na 5 Baksiv.2019.WEB-DLRip-AVC.ExKinoRay.mkv
  4. Формат : Matroska
  5. Версия формата : Version 4 / Version 2
  6. Размер файла : 1,76 Гбайт
  7. Продолжительность : 1 ч. 19 м.
  8. Общий поток : 3145 Кбит/сек
  9. Название фильма : Халепа на 5 baksiv.2019.WEB-DLRip-AVC.ExKinoRay & grab777
  10. Дата кодирования : UTC 2020-03-04 05:46:52
  11. Программа кодирования : mkvmerge v7.3.0 ('Nouages') 64bit built on Oct 22 2014 18:53:34
  12. Библиотека кодирования : libebml v1.3.0 + libmatroska v1.4.1
  13.  
  14. Видео
  15. Идентификатор : 1
  16. Формат : AVC
  17. Формат/Информация : Advanced Video Codec
  18. Профиль формата : High@L4.1
  19. Настройки формата : CABAC / 12 Ref Frames
  20. Параметр CABAC формата : Да
  21. Параметр RefFrames формата : 12 кадров
  22. Идентификатор кодека : V_MPEG4/ISO/AVC
  23. Продолжительность : 1 ч. 19 м.
  24. Битрейт : 2952 Кбит/сек
  25. Ширина : 1024 пикселя
  26. Высота : 424 пикселя
  27. Соотношение сторон : 2,40:1
  28. Соотношение сторон в оригинале : 2,40:1
  29. Режим частоты кадров : Переменный
  30. Частота кадров : 25,000 кадров/сек
  31. Цветовое пространство : YUV
  32. Субдискретизация насыщенности : 4:2:0
  33. Битовая глубина : 8 бит
  34. Тип развёртки : Прогрессивная
  35. Бит/(Пиксели*Кадры) : 0.272
  36. Размер потока : 1,65 Гбайт (94%)
  37. Заголовок : Rip by grab777
  38. Библиотека кодирования : x264 core 148 r2665M a01e339
  39. Настройки программы : cabac=1 / ref=12 / deblock=1:-2:-2 / analyse=0x3:0x133 / me=umh / subme=10 / psy=1 / psy_rd=1.00:0.15 / mixed_ref=1 / me_range=32 / chroma_me=1 / trellis=2 / 8x8dct=1 / cqm=0 / deadzone=21,11 / fast_pskip=0 / chroma_qp_offset=-3 / threads=5 / lookahead_threads=1 / sliced_threads=0 / nr=0 / decimate=1 / interlaced=0 / bluray_compat=0 / constrained_intra=0 / bframes=12 / b_pyramid=2 / b_adapt=2 / b_bias=0 / direct=3 / weightb=1 / open_gop=0 / weightp=2 / keyint=250 / keyint_min=25 / scenecut=40 / intra_refresh=0 / rc_lookahead=40 / rc=crf / mbtree=1 / crf=15.0 / qcomp=0.90 / qpmin=3 / qpmax=69 / qpstep=4 / vbv_maxrate=40000 / vbv_bufsize=30000 / crf_max=31.0 / nal_hrd=none / filler=0 / ip_ratio=1.40 / aq=1:0.00
  40. Default : Да
  41. Forced : Нет
  42. Цветовой диапазон : Limited
  43. Основные цвета : BT.709
  44. Характеристики трансфера : BT.709
  45. Коэффициенты матрицы : BT.709
  46.  
  47. Аудио
  48. Идентификатор : 2
  49. Формат : AC-3
  50. Формат/Информация : Audio Coding 3
  51. Параметр Endianness формата : Big
  52. Идентификатор кодека : A_AC3
  53. Продолжительность : 1 ч. 19 м.
  54. Вид битрейта : Постоянный
  55. Битрейт : 192 Кбит/сек
  56. Каналы : 2 канала
  57. Расположение каналов : Front: L R
  58. Частота : 48,0 КГц
  59. Частота кадров : 31,250 кадров/сек (1536 SPF)
  60. Битовая глубина : 16 бит
  61. Метод сжатия : С потерями
  62. Размер потока : 110 Мбайт (6%)
  63. Заголовок : Original (Surczyk)
  64. ServiceKind/String : Complete Main
  65. Default : Да
  66. Forced : Да
  67.  
  68. Меню
  69. 00:00:00.000 : :Глава 1
  70. 00:09:57.000 : :Глава 2
  71. 00:18:51.000 : :Глава 3
  72. 00:27:06.000 : :Глава 4
  73. 00:34:27.000 : :Глава 5
  74. 00:42:06.000 : :Глава 6
  75. 00:50:03.508 : :Глава 7
  76. 00:58:27.000 : :Глава 8
RAW Paste Data