GrabHD

Untitled

Feb 24th, 2020
108
Never
Not a member of Pastebin yet? Sign Up, it unlocks many cool features!
  1. Complete name : Starik.s.pistoletom.2018.720p.BluRay.ELEKTRI4KA.UNIONGANG.mkv
  2. Format : Matroska
  3. Format version : Version 4 / Version 2
  4. File size : 5.24 GiB
  5. Duration : 1 h 33 min
  6. Overall bit rate : 8 067 kb/s
  7. Movie name : ELEKTRI4KA.UNIONGANG
  8. Encoded date : UTC 2020-02-24 14:27:47
  9. Writing application : mkvmerge v8.3.0 ('Over the Horizon') 64bit
  10. Writing library : libebml v1.3.1 + libmatroska v1.4.2
  11.  
  12. Video
  13. ID : 1
  14. Format : AVC
  15. Format/Info : Advanced Video Codec
  16. Format profile : High@L4.1
  17. Format settings, CABAC : Yes
  18. Format settings, Reference frames : 12 frames
  19. Codec ID : V_MPEG4/ISO/AVC
  20. Duration : 1 h 33 min
  21. Bit rate : 6 200 kb/s
  22. Width : 1 280 pixels
  23. Height : 536 pixels
  24. Display aspect ratio : 2.40:1
  25. Frame rate mode : Constant
  26. Frame rate : 23.976 (24000/1001) FPS
  27. Color space : YUV
  28. Chroma subsampling : 4:2:0
  29. Bit depth : 8 bits
  30. Scan type : Progressive
  31. Bits/(Pixel*Frame) : 0.377
  32. Stream size : 4.00 GiB (76%)
  33. Writing library : x264 core 142 r2431+42 c69a006 tMod [8-bit@all X86_64]
  34. Encoding settings : cabac=1 / ref=12 / deblock=1:-3:-3 / analyse=0x3:0x133 / me=umh / subme=11 / psy=1 / fade_compensate=0.00 / psy_rd=1.05:1.05 / mixed_ref=1 / me_range=48 / chroma_me=1 / trellis=2 / 8x8dct=1 / cqm=0 / deadzone=21,11 / fast_pskip=0 / chroma_qp_offset=-4 / threads=16 / lookahead_threads=2 / sliced_threads=0 / nr=0 / decimate=0 / interlaced=0 / bluray_compat=0 / constrained_intra=0 / fgo=0 / bframes=8 / b_pyramid=2 / b_adapt=2 / b_bias=0 / direct=3 / weightb=1 / open_gop=0 / weightp=2 / keyint=240 / keyint_min=23 / scenecut=40 / intra_refresh=0 / rc_lookahead=240 / rc=2pass / mbtree=0 / bitrate=6200 / ratetol=0.9 / qcomp=0.60 / qpmin=0:0:0 / qpmax=69:69:69 / qpstep=4 / cplxblur=20.0 / qblur=0.5 / vbv_maxrate=62500 / vbv_bufsize=78125 / nal_hrd=none / filler=0 / ip_ratio=1.30 / pb_ratio=1.20 / aq=2:0.60 / aq-sensitivity=10.00 / aq-factor=1.00:1.00:1.00 / aq2=0 / aq3=0
  35. Default : Yes
  36. Forced : No
  37. Color range : Limited
  38. Color primaries : BT.709
  39. Transfer characteristics : BT.709
  40. Matrix coefficients : BT.709
  41.  
  42. Audio #1
  43. ID : 2
  44. Format : AC-3
  45. Format/Info : Audio Coding 3
  46. Mode extension : CM (complete main)
  47. Format settings, Endianness : Big
  48. Codec ID : A_AC3
  49. Duration : 1 h 33 min
  50. Bit rate mode : Constant
  51. Bit rate : 384 kb/s
  52. Channel(s) : 6 channels
  53. Channel positions : Front: L C R, Side: L R, LFE
  54. Sampling rate : 48.0 kHz
  55. Frame rate : 31.250 FPS (1536 spf)
  56. Bit depth : 16 bits
  57. Compression mode : Lossy
  58. Stream size : 256 MiB (5%)
  59. Title : iTunes
  60. Language : Russian
  61. Default : Yes
  62. Forced : No
  63.  
  64. Audio #2
  65. ID : 3
  66. Format : DTS
  67. Format/Info : Digital Theater Systems
  68. Mode : 16
  69. Format settings, Endianness : Big
  70. Codec ID : A_DTS
  71. Duration : 1 h 33 min
  72. Bit rate mode : Constant
  73. Bit rate : 1 509 kb/s
  74. Channel(s) : 6 channels
  75. Channel positions : Front: L C R, Side: L R, LFE
  76. Sampling rate : 48.0 kHz
  77. Frame rate : 93.750 FPS (512 spf)
  78. Bit depth : 24 bits
  79. Compression mode : Lossy
  80. Stream size : 1 004 MiB (19%)
  81. Language : English
  82. Default : No
  83. Forced : No
  84.  
  85. Text #1
  86. ID : 4
  87. Format : UTF-8
  88. Codec ID : S_TEXT/UTF8
  89. Codec ID/Info : UTF-8 Plain Text
  90. Duration : 1 h 19 min
  91. Bit rate : 4 b/s
  92. Count of elements : 43
  93. Stream size : 2.75 KiB (0%)
  94. Title : Forced
  95. Language : Russian
  96. Default : Yes
  97. Forced : No
  98.  
  99. Text #2
  100. ID : 5
  101. Format : PGS
  102. Muxing mode : zlib
  103. Codec ID : S_HDMV/PGS
  104. Codec ID/Info : Picture based subtitle format used on BDs/HD-DVDs
  105. Duration : 1 h 30 min
  106. Bit rate : 20.3 kb/s
  107. Count of elements : 2818
  108. Stream size : 13.1 MiB (0%)
  109. Title : SDH
  110. Language : English
  111. Default : No
  112. Forced : No
  113.  
  114. Menu
  115. 00:00:00.000 : en:Chapter 1
  116. 00:03:21.618 : en:Chapter 2
  117. 00:08:18.498 : en:Chapter 3
  118. 00:13:35.940 : en:Chapter 4
  119. 00:19:34.507 : en:Chapter 5
  120. 00:23:02.214 : en:Chapter 6
  121. 00:26:35.761 : en:Chapter 7
  122. 00:30:38.962 : en:Chapter 8
  123. 00:34:17.472 : en:Chapter 9
  124. 00:38:02.155 : en:Chapter 10
  125. 00:41:30.697 : en:Chapter 11
  126. 00:44:40.887 : en:Chapter 12
  127. 00:48:19.230 : en:Chapter 13
  128. 00:50:06.003 : en:Chapter 14
  129. 00:53:44.304 : en:Chapter 15
  130. 00:56:18.875 : en:Chapter 16
  131. 01:00:09.981 : en:Chapter 17
  132. 01:04:19.022 : en:Chapter 18
  133. 01:09:40.968 : en:Chapter 19
  134. 01:14:20.790 : en:Chapter 20
  135. 01:18:02.595 : en:Chapter 21
  136. 01:21:18.248 : en:Chapter 22
  137. 01:24:33.944 : en:Chapter 23
  138. 01:26:49.996 : en:Chapter 24
RAW Paste Data