SHARE
TWEET

Untitled

a guest May 13th, 2019 49 Never
Not a member of Pastebin yet? Sign Up, it unlocks many cool features!
  1. General
  2. Complete name                            : Steins;Gate Ep 25 - OVA Egoistic Poriomania [1080p x264 AAC] [Funi-DL Eng Dub] [torrenter69].mp4
  3. Format                                   : MPEG-4
  4. Format profile                           : Base Media
  5. Codec ID                                 : isom (isom/iso2/avc1/mp41)
  6. File size                                : 1.09 GiB
  7. Duration                                 : 24 min 46 s
  8. Overall bit rate                         : 6 323 kb/s
  9. Writing application                      : Lavf58.27.103
  10.  
  11. Video
  12. ID                                       : 1
  13. Format                                   : AVC
  14. Format/Info                              : Advanced Video Codec
  15. Format profile                           : High@L4
  16. Format settings                          : CABAC / 4 Ref Frames
  17. Format settings, CABAC                   : Yes
  18. Format settings, ReFrames                : 4 frames
  19. Codec ID                                 : avc1
  20. Codec ID/Info                            : Advanced Video Coding
  21. Duration                                 : 24 min 46 s
  22. Bit rate                                 : 6 063 kb/s
  23. Nominal bit rate                         : 6 500 kb/s
  24. Width                                    : 1 920 pixels
  25. Height                                   : 1 080 pixels
  26. Display aspect ratio                     : 16:9
  27. Frame rate mode                          : Variable
  28. Frame rate                               : 23.976 (24000/1001) FPS
  29. Minimum frame rate                       : 23.974 FPS
  30. Maximum frame rate                       : 23.981 FPS
  31. Color space                              : YUV
  32. Chroma subsampling                       : 4:2:0
  33. Bit depth                                : 8 bits
  34. Scan type                                : Progressive
  35. Bits/(Pixel*Frame)                       : 0.122
  36. Stream size                              : 1.05 GiB (96%)
  37. Writing library                          : x264 core 150 r2833 df79067
  38. Encoding settings                        : cabac=1 / ref=1 / deblock=1:0:0 / analyse=0x3:0x113 / me=hex / subme=7 / psy=1 / psy_rd=1.00:0.00 / mixed_ref=0 / me_range=16 / chroma_me=1 / trellis=1 / 8x8dct=1 / cqm=0 / deadzone=21,11 / fast_pskip=1 / chroma_qp_offset=-2 / threads=24 / lookahead_threads=4 / sliced_threads=0 / nr=0 / decimate=1 / interlaced=0 / bluray_compat=0 / constrained_intra=0 / bframes=2 / b_pyramid=2 / b_adapt=1 / b_bias=0 / direct=1 / weightb=1 / open_gop=0 / weightp=2 / keyint=48 / keyint_min=4 / scenecut=40 / intra_refresh=0 / rc_lookahead=40 / rc=cbr / mbtree=1 / bitrate=6500 / ratetol=1.0 / qcomp=0.60 / qpmin=0 / qpmax=69 / qpstep=4 / vbv_maxrate=6500 / vbv_bufsize=19500 / nal_hrd=none / filler=0 / ip_ratio=1.40 / aq=1:1.00
  39. Codec configuration box                  : avcC
  40.  
  41. Audio
  42. ID                                       : 2
  43. Format                                   : AAC LC
  44. Format/Info                              : Advanced Audio Codec Low Complexity
  45. Codec ID                                 : mp4a-40-2
  46. Duration                                 : 24 min 46 s
  47. Bit rate mode                            : Constant
  48. Bit rate                                 : 253 kb/s
  49. Channel(s)                               : 2 channels
  50. Channel layout                           : L R
  51. Sampling rate                            : 48.0 kHz
  52. Frame rate                               : 46.875 FPS (1024 SPF)
  53. Compression mode                         : Lossy
  54. Stream size                              : 44.9 MiB (4%)
  55. Default                                  : Yes
  56. Alternate group                          : 1
RAW Paste Data
We use cookies for various purposes including analytics. By continuing to use Pastebin, you agree to our use of cookies as described in the Cookies Policy. OK, I Understand
 
Top