SHARE
TWEET

The.Beach.Girls.1982.1080p.BluRay.REMUX.DTS-HD.MA.2.0-MaG

a guest Jun 13th, 2019 18 Never
Not a member of Pastebin yet? Sign Up, it unlocks many cool features!
  1. General
  2. Unique ID                                : 261124539823719290408228753687622664860 (0xC472C1CDC5AB978492D6BE4F136F429C)
  3. Complete name                            : The.Beach.Girls.1982.1080p.BluRay.REMUX.DTS-HD.MA.2.0-MaG.mkv
  4. Format                                   : Matroska
  5. Format version                           : Version 2
  6. File size                                : 13.9 GiB
  7. Duration                                 : 1 h 31 min
  8. Overall bit rate mode                    : Variable
  9. Overall bit rate                         : 21.8 Mb/s
  10. Encoded date                             : UTC 2018-09-19 20:27:14
  11. Writing application                      : MakeMKV v1.12.3 win(x64-release)
  12. Writing library                          : libmakemkv v1.12.3 (1.3.5/1.4.7) win(x64-release)
  13.  
  14. Video
  15. ID                                       : 1
  16. ID in the original source medium         : 4113 (0x1011)
  17. Format                                   : AVC
  18. Format/Info                              : Advanced Video Codec
  19. Format profile                           : High@L4.1
  20. Format settings                          : CABAC / 4 Ref Frames
  21. Format settings, CABAC                   : Yes
  22. Format settings, Reference frames        : 4 frames
  23. Format settings, GOP                     : M=3, N=24
  24. Codec ID                                 : V_MPEG4/ISO/AVC
  25. Duration                                 : 1 h 31 min
  26. Bit rate mode                            : Variable
  27. Bit rate                                 : 20.0 Mb/s
  28. Maximum bit rate                         : 35.0 Mb/s
  29. Width                                    : 1 920 pixels
  30. Height                                   : 1 080 pixels
  31. Display aspect ratio                     : 16:9
  32. Frame rate mode                          : Constant
  33. Frame rate                               : 23.976 (24000/1001) FPS
  34. Standard                                 : NTSC
  35. Color space                              : YUV
  36. Chroma subsampling                       : 4:2:0
  37. Bit depth                                : 8 bits
  38. Scan type                                : Progressive
  39. Bits/(Pixel*Frame)                       : 0.402
  40. Stream size                              : 12.8 GiB (92%)
  41. Language                                 : English
  42. Default                                  : No
  43. Forced                                   : No
  44. Color range                              : Limited
  45. Color primaries                          : BT.709
  46. Transfer characteristics                 : BT.709
  47. Matrix coefficients                      : BT.709
  48. Original source medium                   : Blu-ray
  49.  
  50. Audio
  51. ID                                       : 2
  52. ID in the original source medium         : 4352 (0x1100)
  53. Format                                   : DTS XLL
  54. Format/Info                              : Digital Theater Systems
  55. Commercial name                          : DTS-HD Master Audio
  56. Codec ID                                 : A_DTS
  57. Duration                                 : 1 h 31 min
  58. Bit rate mode                            : Variable
  59. Bit rate                                 : 1 850 kb/s
  60. Channel(s)                               : 2 channels
  61. Channel layout                           : L R
  62. Sampling rate                            : 48.0 kHz
  63. Frame rate                               : 93.750 FPS (512 SPF)
  64. Bit depth                                : 24 bits
  65. Compression mode                         : Lossless
  66. Stream size                              : 1.18 GiB (8%)
  67. Title                                    : Stereo
  68. Language                                 : English
  69. Default                                  : Yes
  70. Forced                                   : No
  71. Original source medium                   : Blu-ray
  72.  
  73. Menu
  74. 00:00:00.000                             : en:Chapter 01
  75. 00:03:27.999                             : en:Chapter 02
  76. 00:17:05.274                             : en:Chapter 03
  77. 00:29:51.080                             : en:Chapter 04
  78. 00:43:01.745                             : en:Chapter 05
  79. 01:02:06.889                             : en:Chapter 06
  80. 01:14:58.744                             : en:Chapter 07
  81. 01:28:14.956                             : en:Chapter 08
RAW Paste Data
We use cookies for various purposes including analytics. By continuing to use Pastebin, you agree to our use of cookies as described in the Cookies Policy. OK, I Understand
 
Top