Guest User

Untitled

a guest
Jun 2nd, 2020
8
Never
Not a member of Pastebin yet? Sign Up, it unlocks many cool features!
  1. General
  2. Unique ID : 313451477164555624053484545927667016623 (0xEBD08F004D647CC728B7724C70A863AF)
  3. Complete name : Сердце ангела (1 сер.) - web-dl1080p.mkv
  4. Format : Matroska
  5. Format version : Version 4
  6. File size : 1.82 GiB
  7. Duration : 50 min 24 s
  8. Overall bit rate : 5 162 kb/s
  9. Encoded date : UTC 2020-06-02 08:51:54
  10. Writing application : mkvmerge v47.0.0 ('Black Flag') 64-bit
  11. Writing library : libebml v1.3.10 + libmatroska v1.5.2
  12.  
  13. Video
  14. ID : 1
  15. Format : AVC
  16. Format/Info : Advanced Video Codec
  17. Format profile : High@L4
  18. Format settings : CABAC / 1 Ref Frames
  19. Format settings, CABAC : Yes
  20. Format settings, Reference : 1 frame
  21. Format settings, GOP : M=1, N=50
  22. Codec ID : V_MPEG4/ISO/AVC
  23. Duration : 50 min 24 s
  24. Bit rate : 5 000 kb/s
  25. Width : 1 920 pixels
  26. Height : 1 080 pixels
  27. Display aspect ratio : 16:9
  28. Frame rate mode : Constant
  29. Frame rate : 25.000 FPS
  30. Color space : YUV
  31. Chroma subsampling : 4:2:0
  32. Bit depth : 8 bits
  33. Scan type : Progressive
  34. Bits/(Pixel*Frame) : 0.096
  35. Stream size : 1.76 GiB (97%)
  36. Default : Yes
  37. Forced : No
  38.  
  39. Audio
  40. ID : 2
  41. Format : AAC LC
  42. Format/Info : Advanced Audio Codec Low Complexity
  43. Codec ID : A_AAC-2
  44. Duration : 50 min 24 s
  45. Bit rate : 160 kb/s
  46. Channel(s) : 2 channels
  47. Channel layout : L R
  48. Sampling rate : 48.0 kHz
  49. Frame rate : 46.875 FPS (1024 SPF)
  50. Compression mode : Lossy
  51. Stream size : 57.7 MiB (3%)
  52. Default : Yes
  53. Forced : No
RAW Paste Data