SHARE
TWEET

American Exit WEB-RIP 1080p

dirtyharrys May 16th, 2019 81 Never
Not a member of Pastebin yet? Sign Up, it unlocks many cool features!
  1. General
  2. Unique ID                   : 300484653638041544815185164068757299260 (0xE20F3D3DFB9B8F945DB88E2E83CDE03C)
  3. Complete name               : E:\V0VCQW1lcmljYW5FeGl0.mkv
  4. Format                      : Matroska
  5. Format version              : Version 4
  6. File size                   : 1.73 GiB
  7. Duration                    : 1 h 25 min
  8. Overall bit rate            : 2 882 kb/s
  9. Movie name                  : American Exit WEB-RIP / American Exit WEB-RIP
  10. Encoded date                : UTC 2019-05-16 08:12:20
  11. Writing application         : mkvmerge v30.1.0 ('Forever And More') 32-bit
  12. Writing library             : libebml v1.3.6 + libmatroska v1.4.9
  13. Copyright                   : Movies HDs 2019
  14. ARTIST                      : HarshLearner
  15.  
  16. Video
  17. ID                          : 1
  18. Format                      : AVC
  19. Format/Info                 : Advanced Video Codec
  20. Format profile              : High@L4.1
  21. Format settings             : CABAC / 4 Ref Frames
  22. Format settings, CABAC      : Yes
  23. Format settings, ReFrames   : 4 frames
  24. Codec ID                    : V_MPEG4/ISO/AVC
  25. Duration                    : 1 h 25 min
  26. Bit rate                    : 2 500 kb/s
  27. Width                       : 1 920 pixels
  28. Height                      : 812 pixels
  29. Display aspect ratio        : 2.35:1
  30. Frame rate mode             : Constant
  31. Frame rate                  : 23.976 (23976/1000) FPS
  32. Color space                 : YUV
  33. Chroma subsampling          : 4:2:0
  34. Bit depth                   : 8 bits
  35. Scan type                   : Progressive
  36. Bits/(Pixel*Frame)          : 0.067
  37. Stream size                 : 1.50 GiB (87%)
  38. Title                       : American Exit
  39. Writing library             : x264 core 152 r2851M ba24899
  40. Default                     : Yes
  41. Forced                      : No
  42.  
  43. Audio
  44. ID                          : 2
  45. Format                      : AC-3
  46. Format/Info                 : Audio Coding 3
  47. Commercial name             : Dolby Digital
  48. Codec ID                    : A_AC3
  49. Duration                    : 1 h 25 min
  50. Bit rate mode               : Constant
  51. Bit rate                    : 384 kb/s
  52. Channel(s)                  : 6 channels
  53. Channel layout              : L R C LFE Ls Rs
  54. Sampling rate               : 48.0 kHz
  55. Frame rate                  : 31.250 FPS (1536 SPF)
  56. Bit depth                   : 16 bits
  57. Compression mode            : Lossy
  58. Stream size                 : 236 MiB (13%)
  59. Language                    : English
  60. Service kind                : Complete Main
  61. Default                     : Yes
  62. Forced                      : No
  63.  
  64. Text #1
  65. ID                          : 3
  66. Format                      : UTF-8
  67. Codec ID                    : S_TEXT/UTF8
  68. Codec ID/Info               : UTF-8 Plain Text
  69. Duration                    : 1 h 18 min
  70. Bit rate                    : 40 b/s
  71. Count of elements           : 816
  72. Stream size                 : 22.9 KiB (0%)
  73. Language                    : English
  74. Default                     : No
  75. Forced                      : No
  76.  
  77. Text #2
  78. ID                          : 4
  79. Format                      : UTF-8
  80. Codec ID                    : S_TEXT/UTF8
  81. Codec ID/Info               : UTF-8 Plain Text
  82. Duration                    : 1 h 23 min
  83. Bit rate                    : 41 b/s
  84. Count of elements           : 933
  85. Stream size                 : 25.5 KiB (0%)
  86. Title                       : English SDH
  87. Language                    : English
  88. Default                     : No
  89. Forced                      : No
  90.  
  91. Text #3
  92. ID                          : 5
  93. Format                      : UTF-8
  94. Codec ID                    : S_TEXT/UTF8
  95. Codec ID/Info               : UTF-8 Plain Text
  96. Duration                    : 1 h 18 min
  97. Bit rate                    : 39 b/s
  98. Count of elements           : 814
  99. Stream size                 : 22.5 KiB (0%)
  100. Language                    : Spanish
  101. Default                     : Yes
  102. Forced                      : Yes
RAW Paste Data
We use cookies for various purposes including analytics. By continuing to use Pastebin, you agree to our use of cookies as described in the Cookies Policy. OK, I Understand
 
Top