Advertisement
Eism

log

Mar 4th, 2018
414
0
Never
Not a member of Pastebin yet? Sign Up, it unlocks many cool features!
text 6.38 KB | None | 0 0
  1. QML debugging is enabled. Only use this in a safe environment.
  2. Unable to query physical screen size, defaulting to 100 dpi.
  3. To override, set QT_QPA_EGLFS_PHYSICAL_WIDTH and QT_QPA_EGLFS_PHYSICAL_HEIGHT (in millimeters).
  4. 10:09:27.714 INFO: POT build Feb 26 2018 13:41:25, version 5.7.0.
  5. 10:09:27.715 INFO: bcm_host_init
  6. 10:09:27.716 INFO: Initializing GPU context in media processor...
  7. 10:09:27.716 INFO: Initializing buffer provider...
  8.  
  9. Requesting control for org.qt-project.qt.metadatareadercontrol/5.0...
  10. Requesting control for org.qt-project.qt.mediaavailabilitycontrol/5.0...
  11. Requesting control for org.qt-project.qt.mediaplayercontrol/5.0...
  12. Requesting control for org.qt-project.qt.medianetworkaccesscontrol/5.0...
  13. Requesting control for org.qt-project.qt.audiorolecontrol/5.6...
  14.  
  15.  
  16.  
  17. Requesting control for org.qt-project.qt.videorenderercontrol/5.0...
  18. Requesting control for org.qt-project.qt.mediaplaylistcontrol/5.0...
  19.  
  20. Input #0, mov,mp4,m4a,3gp,3g2,mj2, from '/home/pi/Video/hd0-1.mp4':
  21. Metadata:
  22. major_brand : isom
  23.  
  24. minor_version : 512
  25. compatible_brands: isomiso2avc1mp41
  26. encoder : Lavf57.83.100
  27. Duration: 00:00:19.05, start: 0.000000, bitrate: 9290 kb/s
  28. Stream #0:0(und): Video: h264 (High) (avc1 / 0x31637661), yuv420p, 1920x1080 [SAR 1:1 DAR 16:9], 9177 kb/s, 25 fps, 25 tbr, 12800 tbn, 50 tbc (default)
  29. Metadata:
  30. handler_name : VideoHandler
  31. Stream #0:1(und): Audio: aac (LC) (mp4a / 0x6134706D), 44100 Hz, stereo, fltp, 128 kb/s (default)
  32. Metadata:
  33. handler_name : SoundHandler
  34.  
  35.  
  36.  
  37.  
  38.  
  39. 10:09:27.908 INFO: Freeing textures in thread: 0x6ce73330.
  40. 10:09:27.909 INFO: Instantiating texture data...
  41.  
  42. 10:09:27.943 INFO: Instantiating texture data...
  43. 10:09:27.977 INFO: Instantiating texture data...
  44. 10:09:28.012 INFO: Instantiating texture data...
  45. Video codec omx-h264 width 1920 height 1080 profile 100 fps 25.000000
  46. Audio codec aac channels 2 samplerate 44100 bitspersample 16
  47. 10:09:28.075 INFO: OMXClock using audio as reference
  48. V:PortSettingsChanged: 1920x1080@25.00 interlace:0 deinterlace:0 anaglyph:0 par:inf display:0 layer:0 alpha:255 aspectMode:0
  49. 10:09:28.113 INFO: Buffer created 0x6a908c20
  50. 10:09:28.113 INFO: Buffer created 0x6a908c90
  51. 10:09:28.114 INFO: Buffer created 0x6a908d00
  52. 10:09:28.114 INFO: Buffer created 0x6a908d70
  53.  
  54.  
  55. 10:09:47.273 INFO: Cleaning up...
  56. 10:09:47.392 INFO: Freeing textures in thread: 0x6ce73330.
  57. 10:09:47.393 INFO: Cleanup done.
  58. Input #0, mov,mp4,m4a,3gp,3g2,mj2, from '/home/pi/Video/hd0-2.mp4':
  59. Metadata:
  60. major_brand : isom
  61. minor_version :
  62. 512
  63. compatible_brands: isomiso2avc1mp41
  64. encoder : Lavf57.83.100
  65. Duration: 00:00:20.05, start: 0.000000, bitrate: 9770 kb/s
  66. Stream #0:0(und): Video: h264 (High) (avc1 / 0x31637661), yuv420p, 1920x1080 [SAR 1:1 DAR 16:9], 9658 kb/s, 25 fps, 25 tbr, 12800 tbn, 50 tbc (default)
  67. Metadata:
  68. handler_name : VideoHandler
  69. Stream #0:1(und): Audio: aac (LC) (mp4a / 0x6134706D), 44100 Hz, stereo, fltp, 128 kb/s (default)
  70. Metadata:
  71. handler_name : SoundHandler
  72.  
  73.  
  74.  
  75.  
  76.  
  77. 10:09:47.436 INFO: Freeing textures in thread: 0x6ce73330.
  78. 10:09:47.436 INFO: Instantiating texture data...
  79.  
  80. 10:09:47.471 INFO: Instantiating texture data...
  81. 10:09:47.506 INFO: Instantiating texture data...
  82. 10:09:47.540 INFO: Instantiating texture data...
  83. 10:09:47.574 WARN: No decoded frame to show at all. Let's render black.
  84. 10:09:47.580 virtual OpenMAXILVideoBuffer::~OpenMAXILVideoBuffer()
  85. Video codec omx-h264 width 1920 height 1080 profile 100 fps 25.000000
  86. Audio codec aac channels 2 samplerate 44100 bitspersample 16
  87. 10:09:47.601 INFO: Stop command issued.
  88. 10:09:47.601 INFO: Cleaning up...
  89.  
  90. 10:09:47.621 INFO: Freeing textures in thread: 0x6ce73330.
  91. 10:09:47.622 INFO: Cleanup done.
  92. 10:09:47.622 virtual OpenMAXILVideoBuffer::~OpenMAXILVideoBuffer()
  93.  
  94.  
  95. Input #0, mov,mp4,m4a,3gp,3g2,mj2, from '/home/pi/Video/hd0-1.mp4':
  96. Metadata:
  97. major_brand : isom
  98. minor_version : 512
  99. compatible_brands:
  100. isomiso2avc1mp41
  101. encoder : Lavf57.83.100
  102. Duration: 00:00:19.05, start: 0.000000, bitrate: 9290 kb/s
  103. Stream #0:0(und): Video: h264 (High) (avc1 / 0x31637661), yuv420p, 1920x1080 [SAR 1:1 DAR 16:9], 9177 kb/s, 25 fps, 25 tbr, 12800 tbn, 50 tbc (default)
  104. Metadata:
  105. handler_name : VideoHandler
  106. Stream #0:1(und): Audio: aac (LC) (mp4a / 0x6134706D), 44100 Hz, stereo, fltp, 128 kb/s (default)
  107. Metadata:
  108. handler_name : SoundHandler
  109.  
  110.  
  111.  
  112.  
  113.  
  114. 10:09:47.735 INFO: Freeing textures in thread: 0x6ce73330.
  115. 10:09:47.735 INFO: Instantiating texture data...
  116.  
  117. 10:09:47.769 INFO: Instantiating texture data...
  118. 10:09:47.803 INFO: Instantiating texture data...
  119. 10:09:47.837 INFO: Instantiating texture data...
  120. Video codec omx-h264 width 1920 height 1080 profile 100 fps 25.000000
  121. Audio codec aac channels 2 samplerate 44100 bitspersample 16
  122. 10:09:47.901 INFO: Stop command issued.
  123. 10:09:47.901 INFO: Cleaning up...
  124. 10:09:47.921 INFO: Freeing textures in thread: 0x6ce73330.
  125. 10:09:47.921 INFO: Cleanup done.
  126. 10:09:47.921 virtual OpenMAXILVideoBuffer::~OpenMAXILVideoBuffer()
  127.  
  128. Input #0, mov,mp4,m4a,3gp,3g2,mj2, from '/home/pi/Video/hd0-2.mp4':
  129. Metadata:
  130. major_brand : isom
  131.  
  132. minor_version : 512
  133. compatible_brands: isomiso2avc1mp41
  134. encoder : Lavf57.83.100
  135. Duration: 00:00:20.05, start: 0.000000, bitrate: 9770 kb/s
  136. Stream #0:0(und): Video: h264 (High) (avc1 / 0x31637661), yuv420p, 1920x1080 [SAR 1:1 DAR 16:9], 9658 kb/s, 25 fps, 25 tbr, 12800 tbn, 50 tbc (default)
  137. Metadata:
  138. handler_name : VideoHandler
  139. Stream #0:1(und): Audio: aac (LC) (mp4a / 0x6134706D), 44100 Hz, stereo, fltp, 128 kb/s (default)
  140. Metadata:
  141. handler_name : SoundHandler
  142.  
  143.  
  144.  
  145.  
  146.  
  147. 10:09:47.958 INFO: Freeing textures in thread: 0x6ce73330.
  148. 10:09:47.958 INFO: Instantiating texture data...
  149.  
  150. 10:09:47.992 INFO: Instantiating texture data...
  151. 10:09:48.027 INFO: Instantiating texture data...
  152. 10:09:48.062 INFO: Instantiating texture data...
  153. Video codec omx-h264 width 1920 height 1080 profile 100 fps 25.000000
  154. Audio codec aac channels 2 samplerate 44100 bitspersample 16
  155. 10:09:48.141 INFO: Stop command issued.
  156. 10:09:48.141 INFO: Cleaning up...
  157. 10:09:48.172 INFO: Freeing textures in thread: 0x6ce73330.
  158. 10:09:48.173 INFO: Cleanup done.
  159.  
  160. ...
  161.  
  162. Application finished with exit code 1.
Advertisement
Add Comment
Please, Sign In to add comment
Advertisement