Advertisement
trds

Untitled

Jan 25th, 2022
1,352
Never
Not a member of Pastebin yet? Sign Up, it unlocks many cool features!
  1. General
  2. Unique ID                                : 337386122356739330483607418208659038101 (0xFDD2341E42F2626E3F1DA31B2C25DF95)
  3. Complete name                            : D:\Encodes\Eternals.2021.1080p.BluRay.DD+7.1.x264-luvBB\Eternals.2021.1080p.BluRay.DD+7.1.x264-luvBB.mkv
  4. Format                                   : Matroska
  5. Format version                           : Version 4
  6. File size                                : 15.8 GiB
  7. Duration                                 : 2 h 35 min
  8. Overall bit rate                         : 14.6 Mb/s
  9. Encoded date                             : UTC 2022-01-25 21:43:09
  10. Writing application                      : mkvmerge v56.1.0 ('My Friend') 64-bit
  11. Writing library                          : libebml v1.4.2 + libmatroska v1.6.4
  12.  
  13. Video
  14. ID                                       : 1
  15. Format                                   : AVC
  16. Format/Info                              : Advanced Video Codec
  17. Format profile                           : High@L4.1
  18. Format settings                          : CABAC / 5 Ref Frames
  19. Format settings, CABAC                   : Yes
  20. Format settings, Reference frames        : 5 frames
  21. Codec ID                                 : V_MPEG4/ISO/AVC
  22. Duration                                 : 2 h 35 min
  23. Bit rate                                 : 12.8 Mb/s
  24. Width                                    : 1 920 pixels
  25. Height                                   : 804 pixels
  26. Display aspect ratio                     : 2.40:1
  27. Frame rate mode                          : Constant
  28. Frame rate                               : 23.976 (24000/1001) FPS
  29. Color space                              : YUV
  30. Chroma subsampling                       : 4:2:0
  31. Bit depth                                : 8 bits
  32. Scan type                                : Progressive
  33. Bits/(Pixel*Frame)                       : 0.346
  34. Stream size                              : 14.0 GiB (88%)
  35. Writing library                          : x264 core 164 r3075+55M t_mod ~ Encoded by luvBB: JigSaw & droops16
  36. Encoding settings                        : cabac=1 / ref=5 / deblock=1:-3:-3 / analyse=0x3:0x133 / me=umh / subme=10 / psy=1 / fade_compensate=0.00 / psy_rd=1.00:0.00 / mixed_ref=1 / me_range=32 / chroma_me=1 / trellis=2 / 8x8dct=1 / cqm=0 / deadzone=21,11 / fast_pskip=0 / chroma_qp_offset=-2 / threads=12 / lookahead_threads=2 / sliced_threads=0 / nr=0 / decimate=0 / interlaced=0 / bluray_compat=0 / constrained_intra=0 / fgo=0 / bframes=9 / b_pyramid=2 / b_adapt=2 / b_bias=0 / direct=3 / weightb=1 / open_gop=0 / weightp=2 / keyint=250 / keyint_min=23 / scenecut=40 / intra_refresh=0 / rc=crf / mbtree=0 / crf=15.6000 / qcomp=0.60 / qpmin=0:0:0 / qpmax=69:69:69 / qpstep=4 / ip_ratio=1.30 / pb_ratio=1.20 / aq=3:0.85 / aq-sensitivity=10.00 / aq-factor=1.00:1.00:1.00 / aq2=0 / aq3=0
  37. Language                                 : English
  38. Default                                  : Yes
  39. Forced                                   : No
  40.  
  41. Audio #1
  42. ID                                       : 2
  43. Format                                   : E-AC-3
  44. Format/Info                              : Enhanced AC-3
  45. Commercial name                          : Dolby Digital Plus
  46. Format profile                           : Blu-ray Disc
  47. Codec ID                                 : A_EAC3
  48. Duration                                 : 2 h 35 min
  49. Bit rate mode                            : Constant
  50. Bit rate                                 : 1 536 kb/s
  51. Channel(s)                               : 8 channels
  52. Channel layout                           : L R C LFE Ls Rs Lb Rb
  53. Sampling rate                            : 48.0 kHz
  54. Frame rate                               : 31.250 FPS (1536 SPF)
  55. Compression mode                         : Lossy
  56. Stream size                              : 1.67 GiB (11%)
  57. Language                                 : English
  58. Service kind                             : Complete Main
  59. Default                                  : Yes
  60. Forced                                   : No
  61.  
  62. Audio #2
  63. ID                                       : 3
  64. Format                                   : AC-3
  65. Format/Info                              : Audio Coding 3
  66. Commercial name                          : Dolby Digital
  67. Codec ID                                 : A_AC3
  68. Duration                                 : 2 h 35 min
  69. Bit rate mode                            : Constant
  70. Bit rate                                 : 192 kb/s
  71. Channel(s)                               : 2 channels
  72. Channel layout                           : L R
  73. Sampling rate                            : 48.0 kHz
  74. Frame rate                               : 31.250 FPS (1536 SPF)
  75. Compression mode                         : Lossy
  76. Stream size                              : 214 MiB (1%)
  77. Title                                    : Commentary by Chloé Zhao, Stephane Ceretti, Mårten Larsson
  78. Language                                 : English
  79. Service kind                             : Complete Main
  80. Default                                  : No
  81. Forced                                   : No
  82.  
  83. Text #1
  84. ID                                       : 4
  85. Format                                   : UTF-8
  86. Codec ID                                 : S_TEXT/UTF8
  87. Codec ID/Info                            : UTF-8 Plain Text
  88. Duration                                 : 2 h 33 min
  89. Bit rate                                 : 41 b/s
  90. Count of elements                        : 1785
  91. Stream size                              : 46.2 KiB (0%)
  92. Language                                 : English
  93. Default                                  : No
  94. Forced                                   : No
  95.  
  96. Text #2
  97. ID                                       : 5
  98. Format                                   : UTF-8
  99. Codec ID                                 : S_TEXT/UTF8
  100. Codec ID/Info                            : UTF-8 Plain Text
  101. Duration                                 : 2 h 32 min
  102. Bit rate                                 : 1 b/s
  103. Count of elements                        : 86
  104. Stream size                              : 1.88 KiB (0%)
  105. Title                                    : Forced
  106. Language                                 : English
  107. Default                                  : Yes
  108. Forced                                   : Yes
  109.  
  110. Text #3
  111. ID                                       : 6
  112. Format                                   : UTF-8
  113. Codec ID                                 : S_TEXT/UTF8
  114. Codec ID/Info                            : UTF-8 Plain Text
  115. Duration                                 : 2 h 33 min
  116. Bit rate                                 : 51 b/s
  117. Count of elements                        : 2208
  118. Stream size                              : 58.0 KiB (0%)
  119. Title                                    : SDH
  120. Language                                 : English
  121. Default                                  : No
  122. Forced                                   : No
  123.  
  124. Text #4
  125. ID                                       : 7
  126. Format                                   : UTF-8
  127. Codec ID                                 : S_TEXT/UTF8
  128. Codec ID/Info                            : UTF-8 Plain Text
  129. Duration                                 : 2 h 35 min
  130. Bit rate                                 : 33 b/s
  131. Count of elements                        : 1663
  132. Stream size                              : 38.0 KiB (0%)
  133. Title                                    : Cantonese
  134. Language                                 : Chinese
  135. Default                                  : No
  136. Forced                                   : No
  137.  
  138. Text #5
  139. ID                                       : 8
  140. Format                                   : UTF-8
  141. Codec ID                                 : S_TEXT/UTF8
  142. Codec ID/Info                            : UTF-8 Plain Text
  143. Duration                                 : 2 h 35 min
  144. Bit rate                                 : 37 b/s
  145. Count of elements                        : 1661
  146. Stream size                              : 42.8 KiB (0%)
  147. Title                                    : Simplified
  148. Language                                 : Chinese
  149. Default                                  : No
  150. Forced                                   : No
  151.  
  152. Text #6
  153. ID                                       : 9
  154. Format                                   : UTF-8
  155. Codec ID                                 : S_TEXT/UTF8
  156. Codec ID/Info                            : UTF-8 Plain Text
  157. Duration                                 : 2 h 35 min
  158. Bit rate                                 : 34 b/s
  159. Count of elements                        : 1679
  160. Stream size                              : 39.8 KiB (0%)
  161. Title                                    : Traditional
  162. Language                                 : Chinese
  163. Default                                  : No
  164. Forced                                   : No
  165.  
  166. Text #7
  167. ID                                       : 10
  168. Format                                   : UTF-8
  169. Codec ID                                 : S_TEXT/UTF8
  170. Codec ID/Info                            : UTF-8 Plain Text
  171. Duration                                 : 2 h 35 min
  172. Bit rate                                 : 38 b/s
  173. Count of elements                        : 1642
  174. Stream size                              : 44.4 KiB (0%)
  175. Language                                 : Czech
  176. Default                                  : No
  177. Forced                                   : No
  178.  
  179. Text #8
  180. ID                                       : 11
  181. Format                                   : UTF-8
  182. Codec ID                                 : S_TEXT/UTF8
  183. Codec ID/Info                            : UTF-8 Plain Text
  184. Duration                                 : 2 h 35 min
  185. Bit rate                                 : 38 b/s
  186. Count of elements                        : 1108
  187. Stream size                              : 43.3 KiB (0%)
  188. Language                                 : Danish
  189. Default                                  : No
  190. Forced                                   : No
  191.  
  192. Text #9
  193. ID                                       : 12
  194. Format                                   : UTF-8
  195. Codec ID                                 : S_TEXT/UTF8
  196. Codec ID/Info                            : UTF-8 Plain Text
  197. Duration                                 : 2 h 35 min
  198. Bit rate                                 : 39 b/s
  199. Count of elements                        : 1400
  200. Stream size                              : 45.4 KiB (0%)
  201. Language                                 : Dutch
  202. Default                                  : No
  203. Forced                                   : No
  204.  
  205. Text #10
  206. ID                                       : 13
  207. Format                                   : UTF-8
  208. Codec ID                                 : S_TEXT/UTF8
  209. Codec ID/Info                            : UTF-8 Plain Text
  210. Duration                                 : 2 h 35 min
  211. Bit rate                                 : 42 b/s
  212. Count of elements                        : 1666
  213. Stream size                              : 48.5 KiB (0%)
  214. Language                                 : Finnish
  215. Default                                  : No
  216. Forced                                   : No
  217.  
  218. Text #11
  219. ID                                       : 14
  220. Format                                   : UTF-8
  221. Codec ID                                 : S_TEXT/UTF8
  222. Codec ID/Info                            : UTF-8 Plain Text
  223. Duration                                 : 2 h 35 min
  224. Bit rate                                 : 59 b/s
  225. Count of elements                        : 2261
  226. Stream size                              : 68.3 KiB (0%)
  227. Title                                    : Canadian (SDH)
  228. Language                                 : French
  229. Default                                  : No
  230. Forced                                   : No
  231.  
  232. Text #12
  233. ID                                       : 15
  234. Format                                   : UTF-8
  235. Codec ID                                 : S_TEXT/UTF8
  236. Codec ID/Info                            : UTF-8 Plain Text
  237. Duration                                 : 2 h 35 min
  238. Bit rate                                 : 44 b/s
  239. Count of elements                        : 1694
  240. Stream size                              : 51.2 KiB (0%)
  241. Title                                    : Canadian
  242. Language                                 : French
  243. Default                                  : No
  244. Forced                                   : No
  245.  
  246. Text #13
  247. ID                                       : 16
  248. Format                                   : UTF-8
  249. Codec ID                                 : S_TEXT/UTF8
  250. Codec ID/Info                            : UTF-8 Plain Text
  251. Duration                                 : 2 h 35 min
  252. Bit rate                                 : 37 b/s
  253. Count of elements                        : 1585
  254. Stream size                              : 43.0 KiB (0%)
  255. Language                                 : French
  256. Default                                  : No
  257. Forced                                   : No
  258.  
  259. Text #14
  260. ID                                       : 17
  261. Format                                   : UTF-8
  262. Codec ID                                 : S_TEXT/UTF8
  263. Codec ID/Info                            : UTF-8 Plain Text
  264. Duration                                 : 2 h 35 min
  265. Bit rate                                 : 37 b/s
  266. Count of elements                        : 1514
  267. Stream size                              : 42.9 KiB (0%)
  268. Language                                 : German
  269. Default                                  : No
  270. Forced                                   : No
  271.  
  272. Text #15
  273. ID                                       : 18
  274. Format                                   : UTF-8
  275. Codec ID                                 : S_TEXT/UTF8
  276. Codec ID/Info                            : UTF-8 Plain Text
  277. Duration                                 : 2 h 35 min
  278. Bit rate                                 : 72 b/s
  279. Count of elements                        : 1651
  280. Stream size                              : 82.2 KiB (0%)
  281. Language                                 : Greek
  282. Default                                  : No
  283. Forced                                   : No
  284.  
  285. Text #16
  286. ID                                       : 19
  287. Format                                   : UTF-8
  288. Codec ID                                 : S_TEXT/UTF8
  289. Codec ID/Info                            : UTF-8 Plain Text
  290. Duration                                 : 2 h 35 min
  291. Bit rate                                 : 42 b/s
  292. Count of elements                        : 1644
  293. Stream size                              : 48.7 KiB (0%)
  294. Language                                 : Icelandic
  295. Default                                  : No
  296. Forced                                   : No
  297.  
  298. Text #17
  299. ID                                       : 20
  300. Format                                   : UTF-8
  301. Codec ID                                 : S_TEXT/UTF8
  302. Codec ID/Info                            : UTF-8 Plain Text
  303. Duration                                 : 2 h 35 min
  304. Bit rate                                 : 42 b/s
  305. Count of elements                        : 1645
  306. Stream size                              : 48.4 KiB (0%)
  307. Language                                 : Italian
  308. Default                                  : No
  309. Forced                                   : No
  310.  
  311. Text #18
  312. ID                                       : 21
  313. Format                                   : UTF-8
  314. Codec ID                                 : S_TEXT/UTF8
  315. Codec ID/Info                            : UTF-8 Plain Text
  316. Duration                                 : 2 h 35 min
  317. Bit rate                                 : 36 b/s
  318. Count of elements                        : 1491
  319. Stream size                              : 41.7 KiB (0%)
  320. Language                                 : Japanese
  321. Default                                  : No
  322. Forced                                   : No
  323.  
  324. Text #19
  325. ID                                       : 22
  326. Format                                   : UTF-8
  327. Codec ID                                 : S_TEXT/UTF8
  328. Codec ID/Info                            : UTF-8 Plain Text
  329. Duration                                 : 2 h 35 min
  330. Bit rate                                 : 43 b/s
  331. Count of elements                        : 1656
  332. Stream size                              : 49.7 KiB (0%)
  333. Language                                 : Korean
  334. Default                                  : No
  335. Forced                                   : No
  336.  
  337. Text #20
  338. ID                                       : 23
  339. Format                                   : UTF-8
  340. Codec ID                                 : S_TEXT/UTF8
  341. Codec ID/Info                            : UTF-8 Plain Text
  342. Duration                                 : 2 h 35 min
  343. Bit rate                                 : 39 b/s
  344. Count of elements                        : 1653
  345. Stream size                              : 44.6 KiB (0%)
  346. Language                                 : Norwegian
  347. Default                                  : No
  348. Forced                                   : No
  349.  
  350. Text #21
  351. ID                                       : 24
  352. Format                                   : UTF-8
  353. Codec ID                                 : S_TEXT/UTF8
  354. Codec ID/Info                            : UTF-8 Plain Text
  355. Duration                                 : 2 h 35 min
  356. Bit rate                                 : 38 b/s
  357. Count of elements                        : 1602
  358. Stream size                              : 43.6 KiB (0%)
  359. Language                                 : Polish
  360. Default                                  : No
  361. Forced                                   : No
  362.  
  363. Text #22
  364. ID                                       : 25
  365. Format                                   : UTF-8
  366. Codec ID                                 : S_TEXT/UTF8
  367. Codec ID/Info                            : UTF-8 Plain Text
  368. Duration                                 : 2 h 35 min
  369. Bit rate                                 : 41 b/s
  370. Count of elements                        : 1716
  371. Stream size                              : 46.7 KiB (0%)
  372. Title                                    : Brazilian (SDH)
  373. Language                                 : Portuguese
  374. Default                                  : No
  375. Forced                                   : No
  376.  
  377. Text #23
  378. ID                                       : 26
  379. Format                                   : UTF-8
  380. Codec ID                                 : S_TEXT/UTF8
  381. Codec ID/Info                            : UTF-8 Plain Text
  382. Duration                                 : 2 h 35 min
  383. Bit rate                                 : 41 b/s
  384. Count of elements                        : 1653
  385. Stream size                              : 47.2 KiB (0%)
  386. Title                                    : Brazilian
  387. Language                                 : Portuguese
  388. Default                                  : No
  389. Forced                                   : No
  390.  
  391. Text #24
  392. ID                                       : 27
  393. Format                                   : UTF-8
  394. Codec ID                                 : S_TEXT/UTF8
  395. Codec ID/Info                            : UTF-8 Plain Text
  396. Duration                                 : 2 h 35 min
  397. Bit rate                                 : 40 b/s
  398. Count of elements                        : 1635
  399. Stream size                              : 46.7 KiB (0%)
  400. Language                                 : Portuguese
  401. Default                                  : No
  402. Forced                                   : No
  403.  
  404. Text #25
  405. ID                                       : 28
  406. Format                                   : UTF-8
  407. Codec ID                                 : S_TEXT/UTF8
  408. Codec ID/Info                            : UTF-8 Plain Text
  409. Duration                                 : 2 h 35 min
  410. Bit rate                                 : 42 b/s
  411. Count of elements                        : 1585
  412. Stream size                              : 48.5 KiB (0%)
  413. Language                                 : Romanian
  414. Default                                  : No
  415. Forced                                   : No
  416.  
  417. Text #26
  418. ID                                       : 29
  419. Format                                   : UTF-8
  420. Codec ID                                 : S_TEXT/UTF8
  421. Codec ID/Info                            : UTF-8 Plain Text
  422. Duration                                 : 2 h 35 min
  423. Bit rate                                 : 43 b/s
  424. Count of elements                        : 1736
  425. Stream size                              : 49.3 KiB (0%)
  426. Title                                    : Latin America (SDH)
  427. Language                                 : Spanish
  428. Default                                  : No
  429. Forced                                   : No
  430.  
  431. Text #27
  432. ID                                       : 30
  433. Format                                   : UTF-8
  434. Codec ID                                 : S_TEXT/UTF8
  435. Codec ID/Info                            : UTF-8 Plain Text
  436. Duration                                 : 2 h 35 min
  437. Bit rate                                 : 42 b/s
  438. Count of elements                        : 1645
  439. Stream size                              : 48.5 KiB (0%)
  440. Title                                    : Latin America
  441. Language                                 : Spanish
  442. Default                                  : No
  443. Forced                                   : No
  444.  
  445. Text #28
  446. ID                                       : 31
  447. Format                                   : UTF-8
  448. Codec ID                                 : S_TEXT/UTF8
  449. Codec ID/Info                            : UTF-8 Plain Text
  450. Duration                                 : 2 h 35 min
  451. Bit rate                                 : 39 b/s
  452. Count of elements                        : 1640
  453. Stream size                              : 45.4 KiB (0%)
  454. Language                                 : Spanish
  455. Default                                  : No
  456. Forced                                   : No
  457.  
  458. Text #29
  459. ID                                       : 32
  460. Format                                   : UTF-8
  461. Codec ID                                 : S_TEXT/UTF8
  462. Codec ID/Info                            : UTF-8 Plain Text
  463. Duration                                 : 2 h 35 min
  464. Bit rate                                 : 39 b/s
  465. Count of elements                        : 1316
  466. Stream size                              : 44.6 KiB (0%)
  467. Language                                 : Swedish
  468. Default                                  : No
  469. Forced                                   : No
  470.  
  471. Menu
  472. 00:00:00.000                             : :Chapter 01
  473. 00:06:43.194                             : :Chapter 02
  474. 00:20:22.888                             : :Chapter 03
  475. 00:31:11.703                             : :Chapter 04
  476. 00:35:04.436                             : :Chapter 05
  477. 00:43:01.412                             : :Chapter 06
  478. 00:49:29.008                             : :Chapter 07
  479. 00:55:50.097                             : :Chapter 08
  480. 01:02:29.537                             : :Chapter 09
  481. 01:07:56.531                             : :Chapter 10
  482. 01:10:39.569                             : :Chapter 11
  483. 01:18:58.275                             : :Chapter 12
  484. 01:24:36.780                             : :Chapter 13
  485. 01:29:56.516                             : :Chapter 14
  486. 01:36:03.049                             : :Chapter 15
  487. 01:42:47.578                             : :Chapter 16
  488. 01:46:27.881                             : :Chapter 17
  489. 01:51:51.163                             : :Chapter 18
  490. 01:55:57.951                             : :Chapter 19
  491. 02:01:46.132                             : :Chapter 20
  492. 02:06:30.249                             : :Chapter 21
  493. 02:11:41.894                             : :Chapter 22
  494. 02:16:32.351                             : :Chapter 23
  495. 02:23:10.665                             : :Chapter 24
  496. 02:25:45.028                             : :Chapter 25
  497. 02:27:56.493                             : :Chapter 26
  498. 02:34:27.175                             : :Chapter 27
Advertisement
Advertisement
Advertisement
RAW Paste Data Copied
Advertisement