TheRealDudeMe

Untitled

Oct 25th, 2019
263
Never
Not a member of Pastebin yet? Sign Up, it unlocks many cool features!
  1.  
  2. General
  3. Unique ID : 196575133033630153444421563204527516566 (0x93E2FE5638BB187DA0DD2365FD4CEB96)
  4. Complete name : The Big Heat 1953 1080p BluRay AVC FLAC1.0 x264-SbR.mkv
  5. Format : Matroska
  6. Format version : Version 4 / Version 2
  7. File size : 12.1 GiB
  8. Duration : 1h 29mn
  9. Overall bit rate mode : Variable
  10. Overall bit rate : 19.3 Mbps
  11. Movie name : SbRâ„¢ release
  12. Encoded date : UTC 2014-11-21 12:09:09
  13. Writing application : mkvmerge v7.3.0 ('Nouages') 64bit built on Oct 22 2014 18:53:34
  14. Writing library : libebml v1.3.0 + libmatroska v1.4.1
  15. Cover : Yes
  16. Attachments : cover.jpg
  17.  
  18. Video
  19. ID : 1
  20. Format : AVC
  21. Format/Info : Advanced Video Codec
  22. Format profile : High@L4.1
  23. Format settings, CABAC : Yes
  24. Format settings, ReFrames : 5 frames
  25. Codec ID : V_MPEG4/ISO/AVC
  26. Duration : 1h 29mn
  27. Bit rate : 18.5 Mbps
  28. Width : 1 440 pixels
  29. Height : 1 080 pixels
  30. Display aspect ratio : 4:3
  31. Frame rate mode : Constant
  32. Frame rate : 23.976 (23976/1000) fps
  33. Color space : YUV
  34. Chroma subsampling : 4:2:0
  35. Bit depth : 8 bits
  36. Scan type : Progressive
  37. Bits/(Pixel*Frame) : 0.495
  38. Stream size : 11.6 GiB (96%)
  39. Writing library : x264 core 142 r2491kMod 24e4fed
  40. Encoding settings : cabac=1 / ref=5 / deblock=1:-3:-3 / analyse=0x3:0x133 / me=tesa / subme=11 / psy=1 / fade_compensate=0.00 / psy_rd=1.00:0.00 / mixed_ref=1 / me_range=24 / chroma_me=1 / trellis=2 / 8x8dct=1 / cqm=0 / deadzone=21,11 / fast_pskip=0 / chroma_qp_offset=-2 / threads=12 / lookahead_threads=3 / sliced_threads=0 / nr=0 / decimate=1 / interlaced=0 / bluray_compat=0 / constrained_intra=0 / fgo=0 / bframes=14 / b_pyramid=2 / b_adapt=2 / b_bias=0 / direct=3 / weightb=1 / open_gop=0 / weightp=2 / keyint=250 / keyint_min=23 / scenecut=40 / intra_refresh=0 / rc=crf / mbtree=0 / crf=20.0000 / qcomp=0.80 / qpmin=0 / qpmax=69 / qpstep=4 / ip_ratio=1.20 / pb_ratio=1.30 / aq=3:0.85
  41. Language : English
  42. Default : Yes
  43. Forced : No
  44. Color range : Limited
  45. Color primaries : BT.709
  46. Transfer characteristics : BT.709
  47. Matrix coefficients : BT.709
  48.  
  49. Audio #1
  50. ID : 2
  51. Format : FLAC
  52. Format/Info : Free Lossless Audio Codec
  53. Codec ID : A_FLAC
  54. Duration : 1h 29mn
  55. Bit rate mode : Variable
  56. Bit rate : 627 Kbps
  57. Channel(s) : 1 channel
  58. Channel positions : Front: C
  59. Sampling rate : 48.0 KHz
  60. Frame rate : 11.719 fps (4096 spf)
  61. Bit depth : 24 bits
  62. Stream size : 402 MiB (3%)
  63. Title : FLAC 1.0 @ 627 kbps
  64. Writing library : libFLAC 1.2.1 (UTC 2007-09-17)
  65. Language : English
  66. Default : Yes
  67. Forced : No
  68.  
  69. Audio #2
  70. ID : 3
  71. Format : FLAC
  72. Format/Info : Free Lossless Audio Codec
  73. Codec ID : A_FLAC
  74. Duration : 1h 29mn
  75. Bit rate mode : Variable
  76. Bit rate : 178 Kbps
  77. Channel(s) : 2 channels
  78. Channel positions : Front: L R
  79. Sampling rate : 48.0 KHz
  80. Frame rate : 11.719 fps (4096 spf)
  81. Bit depth : 16 bits
  82. Stream size : 114 MiB (1%)
  83. Title : FLAC 2.0 @ 178 kbps |Isolated Score Track|
  84. Writing library : libFLAC 1.2.1 (UTC 2007-09-17)
  85. Language : English
  86. Default : No
  87. Forced : No
  88.  
  89. Text #1
  90. ID : 4
  91. Format : UTF-8
  92. Codec ID : S_TEXT/UTF8
  93. Codec ID/Info : UTF-8 Plain Text
  94. Duration : 1h 28mn
  95. Bit rate : 72 bps
  96. Count of elements : 1176
  97. Stream size : 47.1 KiB (0%)
  98. Language : English
  99. Default : No
  100. Forced : No
  101.  
  102. Text #2
  103. ID : 5
  104. Format : UTF-8
  105. Codec ID : S_TEXT/UTF8
  106. Codec ID/Info : UTF-8 Plain Text
  107. Duration : 1h 27mn
  108. Bit rate : 68 bps
  109. Count of elements : 1158
  110. Stream size : 44.0 KiB (0%)
  111. Language : Danish
  112. Default : No
  113. Forced : No
  114.  
  115. Text #3
  116. ID : 6
  117. Format : UTF-8
  118. Codec ID : S_TEXT/UTF8
  119. Codec ID/Info : UTF-8 Plain Text
  120. Duration : 1h 28mn
  121. Bit rate : 124 bps
  122. Count of elements : 1200
  123. Stream size : 80.6 KiB (0%)
  124. Language : Greek
  125. Default : No
  126. Forced : No
  127.  
  128. Text #4
  129. ID : 7
  130. Format : UTF-8
  131. Codec ID : S_TEXT/UTF8
  132. Codec ID/Info : UTF-8 Plain Text
  133. Duration : 1h 27mn
  134. Bit rate : 68 bps
  135. Count of elements : 1160
  136. Stream size : 44.3 KiB (0%)
  137. Language : Hungarian
  138. Default : No
  139. Forced : No
  140.  
  141. Menu
  142. 00:00:00.000 : en:Start
  143. 00:01:00.000 : en:Duncan's Suicide
  144. 00:02:30.000 : en:Mike Lagana
  145. 00:03:55.000 : en:Vince Stone & Debby Marsh
  146. 00:05:38.834 : en:The Grieving Widow
  147. 00:11:12.401 : en:Lucy Chapman
  148. 00:14:19.835 : en:A Second Interview
  149. 00:16:55.703 : en:The Chapman Murder
  150. 00:20:22.770 : en:The Tierney Interview
  151. 00:27:25.004 : en:After Hours Visit
  152. 00:34:19.504 : en:The Car Bomb
  153. 00:35:41.671 : en:Bannion Quits
  154. 00:41:06.272 : en:Lagana Visits Vince
  155. 00:45:22.206 : en:Victory Auto Wrecking
  156. 00:47:50.940 : en:Selma Parker
  157. 00:50:34.774 : en:Hot Time at the Retreat
  158. 00:55:14.508 : en:Bannion's Hotel Room
  159. 00:58:55.442 : en:Scalding Coffee
  160. 01:01:59.677 : en:"I've Been Hurt."
  161. 01:05:03.177 : en:Questioning Larry Gordon
  162. 01:09:45.111 : en:The Big Heat
  163. 01:12:39.578 : en:Unspoken Request
  164. 01:16:07.045 : en:Al's Army Buddies
  165. 01:19:22.345 : en:Sisters Under the Mink
  166. 01:21:14.012 : en:Debby's Revenge
  167. 01:23:23.012 : en:Penthouse Shootout
  168. 01:25:50.779 : en:"Am I Gonna Die?"
  169. 01:28:38.446 : en:Back on the Force
RAW Paste Data