Guest User

Untitled

a guest
Apr 10th, 2021
39
Never
Not a member of Pastebin yet? Sign Up, it unlocks many cool features!
  1. Общее
  2. Уникальный идентификатор : 259889082415638824398635395527428125943 (0xC384D10CFBBC6A862C22A3F646B1B4F7)
  3. Полное имя : Suspiria.1977.REMASTERED.BluRay.REMUX.1080p.KNG.mkv
  4. Формат : Matroska
  5. Версия формата : Version 4
  6. Размер файла : 30,6 Гбайт
  7. Продолжительность : 1 ч. 38 м.
  8. Режим общего битрейта : Переменный
  9. Общий поток : 44,3 Мбит/сек
  10. Название фильма : Suspiria 1977 by Synapse Films
  11. Дата кодирования : UTC 2021-04-10 15:53:00
  12. Программа кодирования : mkvmerge v35.0.0 ('All The Love In The World') 64-bit
  13. Библиотека кодирования : libebml v1.3.9 + libmatroska v1.5.2
  14. Обложка : Yes
  15. Attachments : cover.jpg
  16.  
  17. Видео
  18. Идентификатор : 1
  19. Формат : AVC
  20. Формат/Информация : Advanced Video Codec
  21. Профиль формата : High@L4.1
  22. Настройки формата : CABAC / 3 Ref Frames
  23. Параметр CABAC формата : Да
  24. Параметр RefFrames формата : 3 кадра
  25. Идентификатор кодека : V_MPEG4/ISO/AVC
  26. Продолжительность : 1 ч. 38 м.
  27. Вид битрейта : Переменный
  28. Битрейт : 35,0 Мбит/сек
  29. Ширина : 1 920 пикселей
  30. Высота : 1 080 пикселей
  31. Соотношение сторон : 16:9
  32. Режим частоты кадров : Постоянный
  33. Частота кадров : 23,976 (24000/1001) кадра/сек
  34. Цветовое пространство : YUV
  35. Субдискретизация насыщенности : 4:2:0
  36. Битовая глубина : 8 бит
  37. Тип развёртки : Прогрессивная
  38. Бит/(Пиксели*Кадры) : 0.704
  39. Размер потока : 23,6 Гбайт (77%)
  40. Заголовок : Synapse Films
  41. Библиотека кодирования : x264 core 148 r2705 3f5ed56
  42. Настройки программы : cabac=1 / ref=4 / deblock=0:-1:-1 / analyse=0x3:0x133 / me=umh / subme=10 / psy=1 / psy_rd=1.00:0.15 / mixed_ref=1 / me_range=24 / chroma_me=1 / trellis=2 / 8x8dct=1 / cqm=1 / deadzone=21,11 / fast_pskip=1 / chroma_qp_offset=-3 / threads=12 / lookahead_threads=1 / sliced_threads=0 / slices=4 / nr=0 / decimate=1 / interlaced=0 / bluray_compat=1 / constrained_intra=0 / bframes=3 / b_pyramid=1 / b_adapt=2 / b_bias=0 / direct=3 / weightb=1 / open_gop=1 / weightp=1 / keyint=24 / keyint_min=1 / scenecut=40 / intra_refresh=0 / rc_lookahead=24 / rc=cbr / mbtree=0 / bitrate=35000 / ratetol=1.0 / qcomp=0.30 / qpmin=4 / qpmax=69 / qpstep=4 / vbv_maxrate=35000 / vbv_bufsize=27000 / nal_hrd=vbr / filler=0 / ip_ratio=1.40 / pb_ratio=1.30 / aq=1:0.10
  43. Язык : Italian
  44. Default : Да
  45. Forced : Нет
  46. Цветовой диапазон : Limited
  47. Основные цвета : BT.709
  48. Характеристики трансфера : BT.709
  49. Коэффициенты матрицы : BT.709
  50.  
  51. Аудио #1
  52. Идентификатор : 2
  53. Формат : AC-3
  54. Формат/Информация : Audio Coding 3
  55. Коммерческое название : Dolby Digital
  56. Идентификатор кодека : A_AC3
  57. Продолжительность : 1 ч. 38 м.
  58. Вид битрейта : Постоянный
  59. Битрейт : 224 Кбит/сек
  60. Каналы : 2 канала
  61. Channel layout : L R
  62. Частота : 48,0 КГц
  63. Частота кадров : 31,250 кадров/сек (1536 SPF)
  64. Метод сжатия : С потерями
  65. Размер потока : 158 Мбайт (1%)
  66. Заголовок : MVO - Селена International
  67. Язык : Russian
  68. Service kind : Complete Main
  69. Default : Да
  70. Forced : Нет
  71.  
  72. Аудио #2
  73. Идентификатор : 3
  74. Формат : AC-3
  75. Формат/Информация : Audio Coding 3
  76. Коммерческое название : Dolby Digital
  77. Идентификатор кодека : A_AC3
  78. Продолжительность : 1 ч. 38 м.
  79. Вид битрейта : Постоянный
  80. Битрейт : 192 Кбит/сек
  81. Каналы : 2 канала
  82. Channel layout : L R
  83. Частота : 48,0 КГц
  84. Частота кадров : 31,250 кадров/сек (1536 SPF)
  85. Метод сжатия : С потерями
  86. Размер потока : 135 Мбайт (0%)
  87. Заголовок : AVO - Гаврилов
  88. Язык : Russian
  89. Service kind : Complete Main
  90. Default : Нет
  91. Forced : Нет
  92.  
  93. Аудио #3
  94. Идентификатор : 4
  95. Формат : AC-3
  96. Формат/Информация : Audio Coding 3
  97. Коммерческое название : Dolby Digital
  98. Идентификатор кодека : A_AC3
  99. Продолжительность : 1 ч. 38 м.
  100. Вид битрейта : Постоянный
  101. Битрейт : 192 Кбит/сек
  102. Каналы : 2 канала
  103. Channel layout : L R
  104. Частота : 48,0 КГц
  105. Частота кадров : 31,250 кадров/сек (1536 SPF)
  106. Метод сжатия : С потерями
  107. Размер потока : 135 Мбайт (0%)
  108. Заголовок : AVO - Штейн
  109. Язык : Russian
  110. Service kind : Complete Main
  111. Default : Нет
  112. Forced : Нет
  113.  
  114. Аудио #4
  115. Идентификатор : 5
  116. Формат : AC-3
  117. Формат/Информация : Audio Coding 3
  118. Коммерческое название : Dolby Digital
  119. Идентификатор кодека : A_AC3
  120. Продолжительность : 1 ч. 38 м.
  121. Вид битрейта : Постоянный
  122. Битрейт : 448 Кбит/сек
  123. Каналы : 6 каналов
  124. Channel layout : L R C LFE Ls Rs
  125. Частота : 48,0 КГц
  126. Частота кадров : 31,250 кадров/сек (1536 SPF)
  127. Метод сжатия : С потерями
  128. Размер потока : 316 Мбайт (1%)
  129. Заголовок : AVO - Швецов
  130. Язык : Russian
  131. Service kind : Complete Main
  132. Default : Нет
  133. Forced : Нет
  134.  
  135. Аудио #5
  136. Идентификатор : 6
  137. Формат : AC-3
  138. Формат/Информация : Audio Coding 3
  139. Коммерческое название : Dolby Digital
  140. Идентификатор кодека : A_AC3
  141. Продолжительность : 1 ч. 38 м.
  142. Вид битрейта : Постоянный
  143. Битрейт : 224 Кбит/сек
  144. Каналы : 2 канала
  145. Channel layout : L R
  146. Частота : 48,0 КГц
  147. Частота кадров : 31,250 кадров/сек (1536 SPF)
  148. Метод сжатия : С потерями
  149. Размер потока : 158 Мбайт (1%)
  150. Заголовок : AVO - Белов
  151. Язык : Russian
  152. Service kind : Complete Main
  153. Default : Нет
  154. Forced : Нет
  155.  
  156. Аудио #6
  157. Идентификатор : 7
  158. Формат : DTS XLL
  159. Формат/Информация : Digital Theater Systems
  160. Коммерческое название : DTS-HD Master Audio
  161. Идентификатор кодека : A_DTS
  162. Продолжительность : 1 ч. 38 м.
  163. Вид битрейта : Переменный
  164. Битрейт : 4 828 Кбит/сек
  165. Каналы : 4 канала
  166. Channel layout : C L R Cb
  167. Частота : 96,0 КГц
  168. Частота кадров : 187,500 кадров/сек (512 SPF)
  169. Битовая глубина : 24 бит
  170. Метод сжатия : Без потерь
  171. Размер потока : 3,33 Гбайт (11%)
  172. Заголовок : English
  173. Язык : English
  174. Default : Нет
  175. Forced : Нет
  176.  
  177. Аудио #7
  178. Идентификатор : 8
  179. Формат : DTS XLL
  180. Формат/Информация : Digital Theater Systems
  181. Коммерческое название : DTS-HD Master Audio
  182. Идентификатор кодека : A_DTS
  183. Продолжительность : 1 ч. 38 м.
  184. Вид битрейта : Переменный
  185. Битрейт : 4 034 Кбит/сек
  186. Каналы : 6 каналов
  187. Channel layout : C L R Ls Rs LFE
  188. Частота : 48,0 КГц
  189. Частота кадров : 93,750 кадра/сек (512 SPF)
  190. Битовая глубина : 24 бит
  191. Метод сжатия : Без потерь
  192. Размер потока : 2,78 Гбайт (9%)
  193. Заголовок : Italian
  194. Язык : Italian
  195. Default : Нет
  196. Forced : Нет
  197.  
  198. Текст #1
  199. Идентификатор : 9
  200. Формат : UTF-8
  201. Идентификатор кодека : S_TEXT/UTF8
  202. Идентификатор кодека/Информация : UTF-8 Plain Text
  203. Продолжительность : 1 ч. 36 м.
  204. Битрейт : 64 бит/сек
  205. Count of elements : 737
  206. Размер потока : 45,6 Кбайт (0%)
  207. Заголовок : Full
  208. Язык : Russian
  209. Default : Нет
  210. Forced : Нет
  211.  
  212. Текст #2
  213. Идентификатор : 10
  214. Формат : UTF-8
  215. Идентификатор кодека : S_TEXT/UTF8
  216. Идентификатор кодека/Информация : UTF-8 Plain Text
  217. Продолжительность : 1 ч. 36 м.
  218. Битрейт : 39 бит/сек
  219. Count of elements : 741
  220. Размер потока : 28,3 Кбайт (0%)
  221. Заголовок : SRT
  222. Язык : English
  223. Default : Нет
  224. Forced : Нет
  225.  
  226. Текст #3
  227. Идентификатор : 11
  228. Формат : PGS
  229. Режим смешивания : zlib
  230. Идентификатор кодека : S_HDMV/PGS
  231. Идентификатор кодека/Информация : Picture based subtitle format used on BDs/HD-DVDs
  232. Продолжительность : 1 ч. 37 м.
  233. Битрейт : 25,5 Кбит/сек
  234. Count of elements : 1746
  235. Размер потока : 17,7 Мбайт (0%)
  236. Заголовок : PGS
  237. Язык : English
  238. Default : Нет
  239. Forced : Нет
  240.  
  241. Меню
  242. 00:00:00.000 : :Глава 01
  243. 00:07:54.432 : :Глава 02
  244. 00:14:16.272 : :Глава 03
  245. 00:21:17.275 : :Глава 04
  246. 00:29:59.923 : :Глава 05
  247. 00:37:46.722 : :Глава 06
  248. 00:46:22.279 : :Глава 07
  249. 00:55:49.929 : :Глава 08
  250. 01:04:16.602 : :Глава 09
  251. 01:08:52.461 : :Глава 10
  252. 01:16:36.717 : :Глава 11
  253. 01:20:30.700 : :Глава 12
  254. 01:27:33.665 : :Глава 13
  255. 01:32:08.356 : :Глава 14
  256.  
  257.  
RAW Paste Data