Henry_Kr

MRIBB-2019

Oct 7th, 2019
183
Never
Not a member of Pastebin yet? Sign Up, it unlocks many cool features!
  1. Video
  2. ID : 1
  3. Format : AVC
  4. Format/Info : Advanced Video Codec
  5. Format profile : High@L4
  6. Format settings : CABAC / 4 Ref Frames
  7. Format settings, CABAC : Yes
  8. Format settings, Reference : 4 frames
  9. Muxing mode : Header stripping
  10. Codec ID : V_MPEG4/ISO/AVC
  11. Duration : 22 min 3 s
  12. Bit rate : 3 665 kb/s
  13. Width : 1 920 pixels
  14. Height : 1 080 pixels
  15. Display aspect ratio : 16:9
  16. Frame rate mode : Constant
  17. Frame rate : 23.976 (24000/1001) FPS
  18. Color space : YUV
  19. Chroma subsampling : 4:2:0
  20. Bit depth : 8 bits
  21. Scan type : Progressive
  22. Bits/(Pixel*Frame) : 0.074
  23. Stream size : 578 MiB (87%)
  24. Title : Marvel.Rising.Battle.of.the.Bands.1080p.WEB-DL.[CartoonNOW]
  25. Language : English
  26. Default : Yes
  27. Forced : No
  28.  
  29. Audio #1
  30. ID : 2
  31. Format : AC-3
  32. Format/Info : Audio Coding 3
  33. Commercial name : Dolby Digital
  34. Muxing mode : Header stripping
  35. Codec ID : A_AC3
  36. Duration : 22 min 3 s
  37. Bit rate mode : Constant
  38. Bit rate : 192 kb/s
  39. Channel(s) : 2 channels
  40. Channel layout : L R
  41. Sampling rate : 48.0 kHz
  42. Frame rate : 31.250 FPS (1536 SPF)
  43. Bit depth : 16 bits
  44. Compression mode : Lossy
  45. Stream size : 30.3 MiB (5%)
  46. Title : AC3 2.0
  47. Language : Portuguese
  48. Service kind : Complete Main
  49. Default : Yes
  50. Forced : No
  51.  
  52. Audio #2
  53. ID : 3
  54. Format : E-AC-3
  55. Format/Info : Enhanced AC-3
  56. Commercial name : Dolby Digital Plus
  57. Muxing mode : Header stripping
  58. Codec ID : A_EAC3
  59. Duration : 22 min 3 s
  60. Bit rate mode : Constant
  61. Bit rate : 256 kb/s
  62. Channel(s) : 6 channels
  63. Channel layout : L R C LFE Ls Rs
  64. Sampling rate : 48.0 kHz
  65. Frame rate : 31.250 FPS (1536 SPF)
  66. Compression mode : Lossy
  67. Stream size : 40.4 MiB (6%)
  68. Title : AC3 5.1
  69. Language : English
  70. Service kind : Complete Main
  71. Default : No
  72. Forced : No
  73.  
  74. Text
  75. ID : 4
  76. Format : UTF-8
  77. Codec ID : S_TEXT/UTF8
  78. Codec ID/Info : UTF-8 Plain Text
  79. Title : Completa
  80. Language : Portuguese
  81. Default : No
  82. Forced : No
RAW Paste Data