yuuta_dono

euphofinal.b5.1080

Jan 12th, 2020
269
Never
Not a member of Pastebin yet? Sign Up, it unlocks many cool features!
  1. General
  2. Format : MPEG-4
  3. Format profile : Base Media
  4. Codec ID : isom (isom/avc1)
  5. File size : 1.95 GiB
  6. Duration : 1 h 40 min
  7. Overall bit rate mode : Variable
  8. Overall bit rate : 2 789 kb/s
  9. Encoded date : UTC 2020-01-12 05:35:00
  10. Tagged date : UTC 2020-01-12 08:37:40
  11.  
  12. Video
  13. ID : 1
  14. Format : AVC
  15. Format/Info : Advanced Video Codec
  16. Format profile : High@L5.1
  17. Format settings : CABAC / 9 Ref Frames
  18. Format settings, CABAC : Yes
  19. Format settings, Reference frames : 9 frames
  20. Codec ID : avc1
  21. Codec ID/Info : Advanced Video Coding
  22. Duration : 1 h 40 min
  23. Bit rate : 2 658 kb/s
  24. Maximum bit rate : 14.4 Mb/s
  25. Width : 1 918 pixels
  26. Height : 1 036 pixels
  27. Display aspect ratio : 1.85:1
  28. Frame rate mode : Variable
  29. Frame rate : 24.000 FPS
  30. Minimum frame rate : 23.810 FPS
  31. Maximum frame rate : 24.390 FPS
  32. Color space : YUV
  33. Chroma subsampling : 4:2:0
  34. Bit depth : 8 bits
  35. Scan type : Progressive
  36. Bits/(Pixel*Frame) : 0.056
  37. Stream size : 1.86 GiB (95%)
  38. Title : avs.264#trackID=1@GPAC0.5.2-DEV-rev376-g5eeb74d-master
  39. Encoded date : UTC 2020-01-12 05:35:00
  40. Tagged date : UTC 2020-01-12 08:37:40
  41. Codec configuration box : avcC
  42.  
  43. Audio
  44. ID : 2
  45. Format : AAC LC
  46. Format/Info : Advanced Audio Codec Low Complexity
  47. Codec ID : mp4a-40-2
  48. Duration : 1 h 40 min
  49. Bit rate mode : Variable
  50. Bit rate : 125 kb/s
  51. Maximum bit rate : 200 kb/s
  52. Channel(s) : 2 channels
  53. Channel layout : L R
  54. Sampling rate : 48.0 kHz
  55. Frame rate : 46.875 FPS (1024 SPF)
  56. Compression mode : Lossy
  57. Stream size : 89.6 MiB (4%)
  58. Language : Japanese
  59. Default : Yes
  60. Alternate group : 1
  61. Tagged date : UTC 2020-01-12 08:37:40
RAW Paste Data