AlemaoPS

Untitled

Aug 19th, 2019
200
Never
Not a member of Pastebin yet? Sign Up, it unlocks many cool features!
  1. Video
  2. ID : 1
  3. Format : AVC
  4. Format/Info : Advanced Video Codec
  5. Format profile : High@L4.1
  6. Format settings : CABAC / 2 Ref Frames
  7. Format settings, CABAC : Yes
  8. Format settings, Reference frames : 2 frames
  9. Format settings, GOP : M=1, N=10
  10. Codec ID : V_MPEG4/ISO/AVC
  11. Duration : 2 h 11 min
  12. Bit rate mode : Variable
  13. Bit rate : 21.9 Mb/s
  14. Width : 1 920 pixels
  15. Height : 1 080 pixels
  16. Display aspect ratio : 16:9
  17. Frame rate mode : Constant
  18. Frame rate : 23.976 (24000/1001) FPS
  19. Color space : YUV
  20. Chroma subsampling : 4:2:0
  21. Bit depth : 8 bits
  22. Scan type : Progressive
  23. Bits/(Pixel*Frame) : 0.441
  24. Stream size : 20.2 GiB (67%)
  25. Title : Godzilla.King.of.the.Monsters.2019.1080p.BluRay.REMUX.AVC.DTS-HD.MA.TrueHD.7.1.Atmos-FGT
  26. Language : English
  27. Default : No
  28. Forced : No
  29.  
  30. Audio #1
  31. ID : 2
  32. Format : MLP FBA 16-ch
  33. Format/Info : Meridian Lossless Packing FBA with 16-channel presentation
  34. Commercial name : Dolby TrueHD with Dolby Atmos
  35. Codec ID : A_TRUEHD
  36. Duration : 2 h 11 min
  37. Bit rate mode : Variable
  38. Bit rate : 3 797 kb/s
  39. Maximum bit rate : 6 537 kb/s
  40. Channel(s) : 8 channels
  41. Channel layout : L R C LFE Ls Rs Lb Rb
  42. Sampling rate : 48.0 kHz
  43. Frame rate : 1 200.000 FPS (40 SPF)
  44. Compression mode : Lossless
  45. Stream size : 3.49 GiB (12%)
  46. Title : Godzilla.King.of.the.Monsters.2019.1080p.BluRay.REMUX.AVC.DTS-HD.MA.TrueHD.7.1.Atmos-FGT
  47. Language : English
  48. Default : Yes
  49. Forced : No
  50. Number of dynamic objects : 15
  51. Bed channel count : 1 channel
  52. Bed channel configuration : LFE
  53.  
  54. Audio #2
  55. ID : 3
  56. Format : DTS XLL
  57. Format/Info : Digital Theater Systems
  58. Commercial name : DTS-HD Master Audio
  59. Codec ID : A_DTS
  60. Duration : 2 h 11 min
  61. Bit rate mode : Variable
  62. Bit rate : 3 901 kb/s
  63. Channel(s) : 8 channels
  64. Channel layout : C L R LFE Lb Rb Lss Rss
  65. Sampling rate : 48.0 kHz
  66. Frame rate : 93.750 FPS (512 SPF)
  67. Bit depth : 24 bits
  68. Compression mode : Lossless
  69. Stream size : 3.59 GiB (12%)
  70. Title : Godzilla.King.of.the.Monsters.2019.1080p.BluRay.REMUX.AVC.DTS-HD.MA.TrueHD.7.1.Atmos-FGT
  71. Language : English
  72. Default : No
  73. Forced : No
  74.  
  75. Audio #3
  76. ID : 4
  77. Format : AC-3
  78. Format/Info : Audio Coding 3
  79. Commercial name : Dolby Digital
  80. Codec ID : A_AC3
  81. Duration : 2 h 11 min
  82. Bit rate mode : Constant
  83. Bit rate : 448 kb/s
  84. Channel(s) : 6 channels
  85. Channel layout : L R C LFE Ls Rs
  86. Sampling rate : 48.0 kHz
  87. Frame rate : 31.250 FPS (1536 SPF)
  88. Bit depth : 16 bits
  89. Compression mode : Lossy
  90. Stream size : 422 MiB (1%)
  91. Title : Godzilla.King.of.the.Monsters.2019.1080p.BluRay.REMUX.AVC.DTS-HD.MA.TrueHD.7.1.Atmos-FGT
  92. Language : English
  93. Service kind : Complete Main
  94. Default : No
  95. Forced : No
  96.  
  97. Audio #4
  98. ID : 5
  99. Format : AC-3
  100. Format/Info : Audio Coding 3
  101. Commercial name : Dolby Digital
  102. Codec ID : A_AC3
  103. Duration : 2 h 11 min
  104. Bit rate mode : Constant
  105. Bit rate : 448 kb/s
  106. Channel(s) : 6 channels
  107. Channel layout : L R C LFE Ls Rs
  108. Sampling rate : 48.0 kHz
  109. Frame rate : 31.250 FPS (1536 SPF)
  110. Bit depth : 16 bits
  111. Compression mode : Lossy
  112. Stream size : 422 MiB (1%)
  113. Title : Godzilla.King.of.the.Monsters.2019.1080p.BluRay.REMUX.AVC.DTS-HD.MA.TrueHD.7.1.Atmos-FGT
  114. Language : English
  115. Service kind : Complete Main
  116. Default : No
  117. Forced : No
  118.  
  119. Audio #5
  120. ID : 6
  121. Format : AC-3
  122. Format/Info : Audio Coding 3
  123. Commercial name : Dolby Digital
  124. Codec ID : A_AC3
  125. Duration : 2 h 11 min
  126. Bit rate mode : Constant
  127. Bit rate : 448 kb/s
  128. Channel(s) : 6 channels
  129. Channel layout : L R C LFE Ls Rs
  130. Sampling rate : 48.0 kHz
  131. Frame rate : 31.250 FPS (1536 SPF)
  132. Bit depth : 16 bits
  133. Compression mode : Lossy
  134. Stream size : 422 MiB (1%)
  135. Title : Godzilla.King.of.the.Monsters.2019.1080p.BluRay.REMUX.AVC.DTS-HD.MA.TrueHD.7.1.Atmos-FGT
  136. Language : English
  137. Service kind : Complete Main
  138. Default : No
  139. Forced : No
  140.  
  141. Audio #6
  142. ID : 7
  143. Format : AC-3
  144. Format/Info : Audio Coding 3
  145. Commercial name : Dolby Digital
  146. Codec ID : A_AC3
  147. Duration : 2 h 11 min
  148. Bit rate mode : Constant
  149. Bit rate : 448 kb/s
  150. Channel(s) : 6 channels
  151. Channel layout : L R C LFE Ls Rs
  152. Sampling rate : 48.0 kHz
  153. Frame rate : 31.250 FPS (1536 SPF)
  154. Bit depth : 16 bits
  155. Compression mode : Lossy
  156. Stream size : 422 MiB (1%)
  157. Title : Godzilla.King.of.the.Monsters.2019.1080p.BluRay.REMUX.AVC.DTS-HD.MA.TrueHD.7.1.Atmos-FGT
  158. Language : French
  159. Service kind : Complete Main
  160. Default : No
  161. Forced : No
  162.  
  163. Audio #7
  164. ID : 8
  165. Format : AC-3
  166. Format/Info : Audio Coding 3
  167. Commercial name : Dolby Digital
  168. Codec ID : A_AC3
  169. Duration : 2 h 11 min
  170. Bit rate mode : Constant
  171. Bit rate : 448 kb/s
  172. Channel(s) : 6 channels
  173. Channel layout : L R C LFE Ls Rs
  174. Sampling rate : 48.0 kHz
  175. Frame rate : 31.250 FPS (1536 SPF)
  176. Bit depth : 16 bits
  177. Compression mode : Lossy
  178. Stream size : 422 MiB (1%)
  179. Title : Godzilla.King.of.the.Monsters.2019.1080p.BluRay.REMUX.AVC.DTS-HD.MA.TrueHD.7.1.Atmos-FGT
  180. Language : Spanish
  181. Service kind : Complete Main
  182. Default : No
  183. Forced : No
  184.  
  185. Audio #8
  186. ID : 9
  187. Format : AC-3
  188. Format/Info : Audio Coding 3
  189. Commercial name : Dolby Digital
  190. Codec ID : A_AC3
  191. Duration : 2 h 11 min
  192. Bit rate mode : Constant
  193. Bit rate : 448 kb/s
  194. Channel(s) : 6 channels
  195. Channel layout : L R C LFE Ls Rs
  196. Sampling rate : 48.0 kHz
  197. Frame rate : 31.250 FPS (1536 SPF)
  198. Bit depth : 16 bits
  199. Compression mode : Lossy
  200. Stream size : 422 MiB (1%)
  201. Title : Godzilla.King.of.the.Monsters.2019.1080p.BluRay.REMUX.AVC.DTS-HD.MA.TrueHD.7.1.Atmos-FGT
  202. Language : Portuguese
  203. Service kind : Complete Main
  204. Default : No
  205. Forced : No
  206.  
  207. Audio #9
  208. ID : 10
  209. Format : AC-3
  210. Format/Info : Audio Coding 3
  211. Commercial name : Dolby Digital
  212. Codec ID : A_AC3
  213. Duration : 2 h 11 min
  214. Bit rate mode : Constant
  215. Bit rate : 192 kb/s
  216. Channel(s) : 2 channels
  217. Channel layout : L R
  218. Sampling rate : 48.0 kHz
  219. Frame rate : 31.250 FPS (1536 SPF)
  220. Bit depth : 16 bits
  221. Compression mode : Lossy
  222. Stream size : 181 MiB (1%)
  223. Title : Godzilla.King.of.the.Monsters.2019.1080p.BluRay.REMUX.AVC.DTS-HD.MA.TrueHD.7.1.Atmos-FGT
  224. Language : English
  225. Service kind : Complete Main
  226. Default : No
  227. Forced : No
  228.  
  229. Text #1
  230. ID : 11
  231. Format : UTF-8
  232. Codec ID : S_TEXT/UTF8
  233. Codec ID/Info : UTF-8 Plain Text
  234. Duration : 2 h 10 min
  235. Bit rate : 44 b/s
  236. Count of elements : 1310
  237. Stream size : 42.6 KiB (0%)
  238. Title : English-SRT
  239. Language : English
  240. Default : Yes
  241. Forced : No
  242.  
  243. Text #2
  244. ID : 12
  245. Format : PGS
  246. Muxing mode : zlib
  247. Codec ID : S_HDMV/PGS
  248. Codec ID/Info : Picture based subtitle format used on BDs/HD-DVDs
  249. Duration : 2 h 11 min
  250. Bit rate : 33.0 kb/s
  251. Count of elements : 3322
  252. Stream size : 31.0 MiB (0%)
  253. Title : English-PGS
  254. Language : English
  255. Default : No
  256. Forced : No
  257.  
  258. Text #3
  259. ID : 13
  260. Format : PGS
  261. Muxing mode : zlib
  262. Codec ID : S_HDMV/PGS
  263. Codec ID/Info : Picture based subtitle format used on BDs/HD-DVDs
  264. Duration : 2 h 10 min
  265. Bit rate : 23.9 kb/s
  266. Count of elements : 2552
  267. Stream size : 22.3 MiB (0%)
  268. Title : French-PGS
  269. Language : French
  270. Default : No
  271. Forced : No
  272.  
  273. Text #4
  274. ID : 14
  275. Format : PGS
  276. Muxing mode : zlib
  277. Codec ID : S_HDMV/PGS
  278. Codec ID/Info : Picture based subtitle format used on BDs/HD-DVDs
  279. Duration : 1 h 59 min
  280. Bit rate : 851 b/s
  281. Count of elements : 56
  282. Stream size : 748 KiB (0%)
  283. Title : French-FORCED-PGS
  284. Language : French
  285. Default : No
  286. Forced : No
  287.  
  288. Text #5
  289. ID : 15
  290. Format : PGS
  291. Muxing mode : zlib
  292. Codec ID : S_HDMV/PGS
  293. Codec ID/Info : Picture based subtitle format used on BDs/HD-DVDs
  294. Duration : 2 h 10 min
  295. Bit rate : 28.0 kb/s
  296. Count of elements : 2784
  297. Stream size : 26.2 MiB (0%)
  298. Title : Spanish-PGS
  299. Language : Spanish
  300. Default : No
  301. Forced : No
  302.  
  303. Text #6
  304. ID : 16
  305. Format : PGS
  306. Muxing mode : zlib
  307. Codec ID : S_HDMV/PGS
  308. Codec ID/Info : Picture based subtitle format used on BDs/HD-DVDs
  309. Duration : 2 h 0 min
  310. Bit rate : 1 642 b/s
  311. Count of elements : 102
  312. Stream size : 1.42 MiB (0%)
  313. Title : Spanish-FORCED-PGS
  314. Language : Spanish
  315. Default : No
  316. Forced : No
  317.  
  318. Text #7
  319. ID : 17
  320. Format : PGS
  321. Muxing mode : zlib
  322. Codec ID : S_HDMV/PGS
  323. Codec ID/Info : Picture based subtitle format used on BDs/HD-DVDs
  324. Duration : 2 h 10 min
  325. Bit rate : 28.5 kb/s
  326. Count of elements : 2782
  327. Stream size : 26.7 MiB (0%)
  328. Title : Portuguese-PGS
  329. Language : Portuguese
  330. Default : No
  331. Forced : No
  332.  
  333. Text #8
  334. ID : 18
  335. Format : PGS
  336. Muxing mode : zlib
  337. Codec ID : S_HDMV/PGS
  338. Codec ID/Info : Picture based subtitle format used on BDs/HD-DVDs
  339. Duration : 2 h 1 min
  340. Bit rate : 453 b/s
  341. Count of elements : 36
  342. Stream size : 402 KiB (0%)
  343. Title : Portuguese-FORCED-PGS
  344. Language : Portuguese
  345. Default : No
  346. Forced : No
  347.  
  348. Text #9
  349. ID : 19
  350. Format : PGS
  351. Muxing mode : zlib
  352. Codec ID : S_HDMV/PGS
  353. Codec ID/Info : Picture based subtitle format used on BDs/HD-DVDs
  354. Duration : 2 h 5 min
  355. Bit rate : 557 b/s
  356. Count of elements : 36
  357. Stream size : 512 KiB (0%)
  358. Title : French-FORCED-PGS
  359. Language : French
  360. Default : No
  361. Forced : No
  362.  
  363. Menu
  364. 00:00:00.000 : en:Chapter 01
  365. 00:10:53.903 : en:Chapter 02
  366. 00:18:06.502 : en:Chapter 03
  367. 00:30:26.991 : en:Chapter 04
  368. 00:45:18.590 : en:Chapter 05
  369. 00:54:11.039 : en:Chapter 06
  370. 01:05:41.646 : en:Chapter 07
  371. 01:09:31.584 : en:Chapter 08
  372. 01:19:31.099 : en:Chapter 09
  373. 01:30:05.983 : en:Chapter 10
  374. 01:38:36.785 : en:Chapter 11
  375. 01:49:58.883 : en:Chapter 12
  376. 01:59:28.828 : en:Chapter 13
RAW Paste Data

Adblocker detected! Please consider disabling it...

We've detected AdBlock Plus or some other adblocking software preventing Pastebin.com from fully loading.

We don't have any obnoxious sound, or popup ads, we actively block these annoying types of ads!

Please add Pastebin.com to your ad blocker whitelist or disable your adblocking software.

×