stillet-Megapeer

Untitled

Nov 25th, 2021
33
Never
Not a member of Pastebin yet? Sign Up, it unlocks many cool features!
  1. Общее
  2. Уникальный идентификатор : 210307814545899493202070838988198774961 (0x9E37CFCF52DDAFC2977F4A9AD1DE08B1)
  3. Полное имя : Volition.2019.1080p.BluRay.DD.5.1.x264.MegaPeer.mkv
  4. Формат : Matroska
  5. Версия формата : Version 4
  6. Размер файла : 7,09 Гбайт
  7. Продолжительность : 1 ч. 32 м.
  8. Общий поток : 11,0 Мбит/сек
  9. Название фильма : Кольцо времени / Volition (2019) от MegaPeer
  10. Дата кодирования : UTC 2021-11-25 11:56:03
  11. Программа кодирования : mkvmerge v15.0.0 ('Duel with the Devil') 64-bit
  12. Библиотека кодирования : libebml v1.3.5 + libmatroska v1.4.5
  13. Обложка : Yes
  14. Attachments : cover.jpg
  15.  
  16. Видео
  17. Идентификатор : 1
  18. Формат : AVC
  19. Формат/Информация : Advanced Video Codec
  20. Профиль формата : High@L4.1
  21. Настройки формата : CABAC / 4 Ref Frames
  22. Параметр CABAC формата : Да
  23. Параметр RefFrames формата : 4 кадра
  24. Идентификатор кодека : V_MPEG4/ISO/AVC
  25. Продолжительность : 1 ч. 32 м.
  26. Битрейт : 10 000 Кбит/сек
  27. Ширина : 1 920 пикселей
  28. Высота : 804 пикселя
  29. Соотношение сторон : 2,40:1
  30. Режим частоты кадров : Постоянный
  31. Частота кадров : 23,976 (24000/1001) кадра/сек
  32. Цветовое пространство : YUV
  33. Субдискретизация насыщенности : 4:2:0
  34. Битовая глубина : 8 бит
  35. Тип развёртки : Прогрессивная
  36. Бит/(Пиксели*Кадры) : 0.270
  37. Размер потока : 6,43 Гбайт (91%)
  38. Заголовок : stillet@MegaPeer
  39. Библиотека кодирования : x264 core 161 r3018 db0d417
  40. Настройки программы : cabac=1 / ref=4 / deblock=1:-3:-3 / analyse=0x3:0x113 / me=umh / subme=10 / psy=1 / psy_rd=1.05:0.03 / mixed_ref=1 / me_range=48 / chroma_me=1 / trellis=2 / 8x8dct=1 / cqm=0 / deadzone=21,11 / fast_pskip=0 / chroma_qp_offset=-3 / threads=24 / lookahead_threads=4 / sliced_threads=0 / nr=0 / decimate=0 / interlaced=0 / bluray_compat=0 / constrained_intra=0 / bframes=8 / b_pyramid=2 / b_adapt=2 / b_bias=0 / direct=3 / weightb=1 / open_gop=0 / weightp=2 / keyint=240 / keyint_min=24 / scenecut=40 / intra_refresh=0 / rc_lookahead=40 / rc=2pass / mbtree=0 / bitrate=10000 / ratetol=1.0 / qcomp=0.60 / qpmin=0 / qpmax=69 / qpstep=4 / cplxblur=20.0 / qblur=0.5 / vbv_maxrate=50000 / vbv_bufsize=62500 / nal_hrd=none / filler=0 / ip_ratio=1.40 / pb_ratio=1.30 / aq=1:1.10
  41. Язык : German
  42. Default : Да
  43. Forced : Нет
  44.  
  45. Аудио #1
  46. Идентификатор : 2
  47. Формат : AC-3
  48. Формат/Информация : Audio Coding 3
  49. Коммерческое название : Dolby Digital
  50. Идентификатор кодека : A_AC3
  51. Продолжительность : 1 ч. 32 м.
  52. Вид битрейта : Постоянный
  53. Битрейт : 384 Кбит/сек
  54. Каналы : 6 каналов
  55. Channel layout : L R C LFE Ls Rs
  56. Частота : 48,0 КГц
  57. Частота кадров : 31,250 кадров/сек (1536 SPF)
  58. Метод сжатия : С потерями
  59. Размер потока : 253 Мбайт (3%)
  60. Заголовок : MVO | iTunes
  61. Язык : Russian
  62. Service kind : Complete Main
  63. Default : Да
  64. Forced : Нет
  65.  
  66. Аудио #2
  67. Идентификатор : 3
  68. Формат : AC-3
  69. Формат/Информация : Audio Coding 3
  70. Коммерческое название : Dolby Digital
  71. Идентификатор кодека : A_AC3
  72. Продолжительность : 1 ч. 32 м.
  73. Вид битрейта : Постоянный
  74. Битрейт : 640 Кбит/сек
  75. Каналы : 6 каналов
  76. Channel layout : L R C LFE Ls Rs
  77. Частота : 48,0 КГц
  78. Частота кадров : 31,250 кадров/сек (1536 SPF)
  79. Метод сжатия : С потерями
  80. Размер потока : 422 Мбайт (6%)
  81. Язык : English
  82. Service kind : Complete Main
  83. Default : Нет
  84. Forced : Нет
  85.  
  86. Текст #1
  87. Идентификатор : 4
  88. Формат : UTF-8
  89. Идентификатор кодека : S_TEXT/UTF8
  90. Идентификатор кодека/Информация : UTF-8 Plain Text
  91. Продолжительность : 1 ч. 27 м.
  92. Битрейт : 92 бит/сек
  93. Count of elements : 1195
  94. Размер потока : 59,6 Кбайт (0%)
  95. Заголовок : Full
  96. Язык : Russian
  97. Default : Нет
  98. Forced : Нет
  99.  
  100. Текст #2
  101. Идентификатор : 5
  102. Формат : UTF-8
  103. Идентификатор кодека : S_TEXT/UTF8
  104. Идентификатор кодека/Информация : UTF-8 Plain Text
  105. Продолжительность : 1 ч. 27 м.
  106. Битрейт : 59 бит/сек
  107. Count of elements : 1441
  108. Размер потока : 38,5 Кбайт (0%)
  109. Заголовок : Full
  110. Язык : English
  111. Default : Нет
  112. Forced : Нет
  113.  
  114. Текст #3
  115. Идентификатор : 6
  116. Формат : UTF-8
  117. Идентификатор кодека : S_TEXT/UTF8
  118. Идентификатор кодека/Информация : UTF-8 Plain Text
  119. Продолжительность : 1 ч. 31 м.
  120. Битрейт : 66 бит/сек
  121. Count of elements : 1802
  122. Размер потока : 44,7 Кбайт (0%)
  123. Заголовок : SDH
  124. Язык : English
  125. Default : Нет
  126. Forced : Нет
  127.  
  128. Меню
  129. 00:00:00.000 : :ger: 01
  130. 00:08:54.533 : :ger: 02
  131. 00:22:06.325 : :ger: 03
  132. 00:32:33.951 : :ger: 04
  133. 00:43:31.608 : :ger: 05
  134. 00:53:42.219 : :ger: 06
  135. 01:04:35.871 : :ger: 07
  136. 01:17:22.636 : :ger: 08
  137. 01:28:40.314 : :ger: 09
RAW Paste Data