SHARE
TWEET

A Dogs Way Home BluRay 720p

dirtyharrys Mar 31st, 2019 95 Never
Not a member of Pastebin yet? Sign Up, it unlocks many cool features!
  1. General
  2. Unique ID                   : 35549575163230994099033975243919048238 (0x1ABE9960B2214FFF6FA337202BDFBE2E)
  3. Complete name               : E:\QlJSQURvZ3NXYXlIb21l.mkv
  4. Format                      : Matroska
  5. Format version              : Version 4
  6. File size                   : 1.74 GiB
  7. Duration                    : 1 h 35 min
  8. Overall bit rate            : 2 604 kb/s
  9. Movie name                  : A Dogs Way Home BR-RIP / A Dogs Way Home BR-RIP
  10. Encoded date                : UTC 2019-03-30 07:14:25
  11. Writing application         : mkvmerge v30.1.0 ('Forever And More') 32-bit
  12. Writing library             : libebml v1.3.6 + libmatroska v1.4.9
  13. Copyright                   : Movies HDs 2019
  14. ARTIST                      : HarshLearner
  15.  
  16. Video
  17. ID                          : 1
  18. Format                      : AVC
  19. Format/Info                 : Advanced Video Codec
  20. Format profile              : High@L4.1
  21. Format settings             : CABAC / 4 Ref Frames
  22. Format settings, CABAC      : Yes
  23. Format settings, ReFrames   : 4 frames
  24. Codec ID                    : V_MPEG4/ISO/AVC
  25. Duration                    : 1 h 35 min
  26. Bit rate                    : 1 500 kb/s
  27. Width                       : 1 280 pixels
  28. Height                      : 536 pixels
  29. Display aspect ratio        : 2.40:1
  30. Frame rate mode             : Constant
  31. Frame rate                  : 23.976 (23976/1000) FPS
  32. Color space                 : YUV
  33. Chroma subsampling          : 4:2:0
  34. Bit depth                   : 8 bits
  35. Scan type                   : Progressive
  36. Bits/(Pixel*Frame)          : 0.091
  37. Stream size                 : 1.00 GiB (58%)
  38. Title                       : A Dogs Way Home
  39. Writing library             : x264 core 152 r2851M ba24899
  40. Default                     : Yes
  41. Forced                      : No
  42.  
  43. Audio #1
  44. ID                          : 2
  45. Format                      : AC-3
  46. Format/Info                 : Audio Coding 3
  47. Commercial name             : Dolby Digital
  48. Codec ID                    : A_AC3
  49. Duration                    : 1 h 35 min
  50. Bit rate mode               : Constant
  51. Bit rate                    : 448 kb/s
  52. Channel(s)                  : 6 channels
  53. Channel layout              : L R C LFE Ls Rs
  54. Sampling rate               : 48.0 kHz
  55. Frame rate                  : 31.250 FPS (1536 SPF)
  56. Bit depth                   : 16 bits
  57. Compression mode            : Lossy
  58. Stream size                 : 307 MiB (17%)
  59. Language                    : English
  60. Service kind                : Complete Main
  61. Default                     : No
  62. Forced                      : No
  63.  
  64. Audio #2
  65. ID                          : 3
  66. Format                      : AC-3
  67. Format/Info                 : Audio Coding 3
  68. Commercial name             : Dolby Digital
  69. Codec ID                    : A_AC3
  70. Duration                    : 1 h 35 min
  71. Bit rate mode               : Constant
  72. Bit rate                    : 640 kb/s
  73. Channel(s)                  : 6 channels
  74. Channel layout              : L R C LFE Ls Rs
  75. Sampling rate               : 48.0 kHz
  76. Frame rate                  : 31.250 FPS (1536 SPF)
  77. Bit depth                   : 16 bits
  78. Compression mode            : Lossy
  79. Stream size                 : 439 MiB (25%)
  80. Language                    : Spanish
  81. Service kind                : Complete Main
  82. Default                     : Yes
  83. Forced                      : Yes
  84.  
  85. Text #1
  86. ID                          : 4
  87. Format                      : PGS
  88. Muxing mode                 : zlib
  89. Codec ID                    : S_HDMV/PGS
  90. Codec ID/Info               : Picture based subtitle format used on BDs/HD-DVDs
  91. Duration                    : 1 h 34 min
  92. Bit rate                    : 26.7 kb/s
  93. Count of elements           : 2098
  94. Stream size                 : 18.0 MiB (1%)
  95. Language                    : Spanish
  96. Default                     : No
  97. Forced                      : No
  98.  
  99. Text #2
  100. ID                          : 5
  101. Format                      : UTF-8
  102. Codec ID                    : S_TEXT/UTF8
  103. Codec ID/Info               : UTF-8 Plain Text
  104. Duration                    : 1 h 29 min
  105. Bit rate                    : 55 b/s
  106. Count of elements           : 1239
  107. Stream size                 : 36.6 KiB (0%)
  108. Language                    : English
  109. Default                     : No
  110. Forced                      : No
  111.  
  112. Text #3
  113. ID                          : 6
  114. Format                      : UTF-8
  115. Codec ID                    : S_TEXT/UTF8
  116. Codec ID/Info               : UTF-8 Plain Text
  117. Duration                    : 1 h 29 min
  118. Bit rate                    : 60 b/s
  119. Count of elements           : 1413
  120. Stream size                 : 39.8 KiB (0%)
  121. Title                       : SDH
  122. Language                    : English
  123. Default                     : No
  124. Forced                      : No
  125.  
  126. Text #4
  127. ID                          : 7
  128. Format                      : UTF-8
  129. Codec ID                    : S_TEXT/UTF8
  130. Codec ID/Info               : UTF-8 Plain Text
  131. Duration                    : 1 h 28 min
  132. Bit rate                    : 56 b/s
  133. Count of elements           : 1165
  134. Stream size                 : 36.5 KiB (0%)
  135. Language                    : Spanish
  136. Default                     : Yes
  137. Forced                      : Yes
  138.  
  139. Menu
  140. 00:00:00.000                : :Chapter 01
  141. 00:06:45.113                : :Chapter 02
  142. 00:11:38.114                : :Chapter 03
  143. 00:18:29.358                : :Chapter 04
  144. 00:21:30.956                : :Chapter 05
  145. 00:27:09.419                : :Chapter 06
  146. 00:33:17.871                : :Chapter 07
  147. 00:39:45.133                : :Chapter 08
  148. 00:48:28.823                : :Chapter 09
  149. 00:53:55.774                : :Chapter 10
  150. 01:01:23.513                : :Chapter 11
  151. 01:06:28.193                : :Chapter 12
  152. 01:10:10.289                : :Chapter 13
  153. 01:15:09.505                : :Chapter 14
  154. 01:17:34.608                : :Chapter 15
RAW Paste Data
We use cookies for various purposes including analytics. By continuing to use Pastebin, you agree to our use of cookies as described in the Cookies Policy. OK, I Understand
 
Top