Guest User

Untitled

a guest
Jan 25th, 2020
86
Never
Not a member of Pastebin yet? Sign Up, it unlocks many cool features!
  1. General
  2. Unique ID : 0 (0x0)
  3. Complete name : \\Nekopara [2020] [WEB-DL] [1080p] [RUS + JAP]\Nekopara - 01 [WEB-DL 1920x1080 x264 AAC].mkv
  4. Format : Matroska
  5. Format version : Version 4
  6. File size : 1.24 GiB
  7. Duration : 21 min 44 s
  8. Overall bit rate : 8 188 kb/s
  9. Encoded date : UTC 2020-01-19 10:27:44
  10. Writing application : mkvmerge v36.0.0 ('Is That Jazz?') 64-bit
  11. Writing library : libebml v1.3.9 + libmatroska v1.5.2
  12.  
  13. Video
  14. ID : 1
  15. Format : AVC
  16. Format/Info : Advanced Video Codec
  17. Format profile : High@L4.1
  18. Format settings : CABAC / 4 Ref Frames
  19. Format settings, CABAC : Yes
  20. Format settings, ReFrames : 4 frames
  21. Codec ID : V_MPEG4/ISO/AVC
  22. Duration : 21 min 44 s
  23. Bit rate : 7 569 kb/s
  24. Width : 1 920 pixels
  25. Height : 1 080 pixels
  26. Display aspect ratio : 16:9
  27. Frame rate mode : Constant
  28. Frame rate : 23.976 (24000/1001) FPS
  29. Color space : YUV
  30. Chroma subsampling : 4:2:0
  31. Bit depth : 8 bits
  32. Scan type : Progressive
  33. Bits/(Pixel*Frame) : 0.152
  34. Stream size : 1.15 GiB (92%)
  35. Writing library : x264 core 155 r2901 7d0ff22
  36. Encoding settings : cabac=1 / ref=4 / deblock=1:1:1 / analyse=0x3:0x133 / me=umh / subme=10 / psy=1 / psy_rd=0.40:0.00 / mixed_ref=1 / me_range=24 / chroma_me=1 / trellis=2 / 8x8dct=1 / cqm=0 / deadzone=21,11 / fast_pskip=1 / chroma_qp_offset=-2 / threads=24 / lookahead_threads=6 / sliced_threads=0 / nr=0 / decimate=1 / interlaced=0 / bluray_compat=0 / constrained_intra=0 / bframes=10 / b_pyramid=2 / b_adapt=2 / b_bias=0 / direct=3 / weightb=1 / open_gop=0 / weightp=2 / keyint=250 / keyint_min=23 / scenecut=40 / intra_refresh=0 / rc_lookahead=60 / rc=crf / mbtree=1 / crf=11.0 / qcomp=0.60 / qpmin=0 / qpmax=69 / qpstep=4 / ip_ratio=1.40 / aq=1:0.60
  37. Default : Yes
  38. Forced : No
  39.  
  40. Audio #1
  41. ID : 2
  42. Format : AAC LC
  43. Format/Info : Advanced Audio Codec Low Complexity
  44. Codec ID : A_AAC-2
  45. Duration : 21 min 44 s
  46. Bit rate : 308 kb/s
  47. Channel(s) : 2 channels
  48. Channel layout : L R
  49. Sampling rate : 48.0 kHz
  50. Frame rate : 46.875 FPS (1024 SPF)
  51. Compression mode : Lossy
  52. Stream size : 47.9 MiB (4%)
  53. Language : Russian
  54. Default : Yes
  55. Forced : No
  56.  
  57. Audio #2
  58. ID : 3
  59. Format : AAC LC
  60. Format/Info : Advanced Audio Codec Low Complexity
  61. Codec ID : A_AAC-2
  62. Duration : 21 min 44 s
  63. Bit rate : 308 kb/s
  64. Channel(s) : 2 channels
  65. Channel layout : L R
  66. Sampling rate : 48.0 kHz
  67. Frame rate : 46.875 FPS (1024 SPF)
  68. Compression mode : Lossy
  69. Stream size : 47.9 MiB (4%)
  70. Language : Japanese
  71. Default : No
  72. Forced : No
RAW Paste Data