Guest User

Untitled

a guest
Nov 18th, 2014
199
Never
Not a member of Pastebin yet? Sign Up, it unlocks many cool features!
  1. General
  2. Unique ID : 4703749708150947810118709677627674260 (0x389E8C40B146D18F7C7F3FA08AE0E94)
  3. Complete name : Y:\Video\TVShows\Marvel's Agents of S.H.I.E.L.D\Season 2\Marvel's Agents of S.H.I.E.L.D S02E07.mkv
  4. Format : Matroska
  5. Format version : Version 4 / Version 2
  6. File size : 1.00 GiB
  7. Duration : 42mn 0s
  8. Overall bit rate : 3 419 Kbps
  9. Encoded date : UTC 2014-11-12 03:03:50
  10. Writing application : mkvmerge v7.0.0 ('Where We Going') 64bit built on Jun 22 2014 08:19:39
  11. Writing library : libebml v1.3.0 + libmatroska v1.4.1
  12.  
  13. Video
  14. ID : 1
  15. Format : AVC
  16. Format/Info : Advanced Video Codec
  17. Format profile : High@L4.1
  18. Format settings, CABAC : Yes
  19. Format settings, ReFrames : 5 frames
  20. Codec ID : V_MPEG4/ISO/AVC
  21. Duration : 42mn 0s
  22. Bit rate : 2 967 Kbps
  23. Width : 1 280 pixels
  24. Height : 720 pixels
  25. Display aspect ratio : 16:9
  26. Frame rate mode : Constant
  27. Frame rate : 23.976 fps
  28. Color space : YUV
  29. Chroma subsampling : 4:2:0
  30. Bit depth : 8 bits
  31. Scan type : Progressive
  32. Bits/(Pixel*Frame) : 0.134
  33. Stream size : 891 MiB (87%)
  34. Writing library : x264 core 142 r2479 dd79a61
  35. Encoding settings : cabac=1 / ref=5 / deblock=1:0:0 / analyse=0x3:0x113 / me=umh / subme=8 / psy=1 / psy_rd=1.00:0.00 / mixed_ref=1 / me_range=16 / chroma_me=1 / trellis=1 / 8x8dct=1 / cqm=0 / deadzone=21,11 / fast_pskip=1 / chroma_qp_offset=-2 / threads=18 / lookahead_threads=3 / sliced_threads=0 / nr=0 / decimate=1 / interlaced=0 / bluray_compat=0 / constrained_intra=0 / bframes=3 / b_pyramid=2 / b_adapt=2 / b_bias=0 / direct=3 / weightb=1 / open_gop=0 / weightp=2 / keyint=250 / keyint_min=23 / scenecut=40 / intra_refresh=0 / rc_lookahead=50 / rc=crf / mbtree=1 / crf=18.0 / qcomp=0.60 / qpmin=0 / qpmax=69 / qpstep=4 / ip_ratio=1.40 / aq=1:1.00
  36. Language : English
  37. Default : Yes
  38. Forced : No
  39. Matrix coefficients : BT.709
  40.  
  41. Audio
  42. ID : 2
  43. Format : AC-3
  44. Format/Info : Audio Coding 3
  45. Mode extension : CM (complete main)
  46. Format settings, Endianness : Big
  47. Codec ID : A_AC3
  48. Duration : 42mn 0s
  49. Bit rate mode : Constant
  50. Bit rate : 384 Kbps
  51. Channel(s) : 6 channels
  52. Channel positions : Front: L C R, Side: L R, LFE
  53. Sampling rate : 48.0 KHz
  54. Bit depth : 16 bits
  55. Compression mode : Lossy
  56. Stream size : 115 MiB (11%)
  57. Default : Yes
  58. Forced : No
RAW Paste Data