Advertisement
yushiro

p.Survivor (2015)[BDRemux 1080p].yus

Jan 31st, 2021
97
0
Never
Not a member of Pastebin yet? Sign Up, it unlocks many cool features!
text 6.37 KB | None | 0 0
  1. General
  2. Unique ID : 162766405353387315264086154595052347524 (0x7A73AB5DDDC55289A79D63BCEADCE084)
  3. Complete name : G:\Survivor (2015)[BDRemux 1080p].mkv
  4. Format : Matroska
  5. Format version : Version 4
  6. File size : 24.4 GiB
  7. Duration : 1 h 32 min
  8. Overall bit rate mode : Variable
  9. Overall bit rate : 37.6 Mb/s
  10. Encoded date : UTC 2021-01-23 18:00:35
  11. Writing application : mkvmerge v51.0.0 ('I Wish') 64-bit
  12. Writing library : libebml v1.4.0 + libmatroska v1.6.2
  13.  
  14. Video
  15. ID : 1
  16. ID in the original source m : 4113 (0x1011)
  17. Format : AVC
  18. Format/Info : Advanced Video Codec
  19. Format profile : High@L4.1
  20. Format settings : CABAC / 4 Ref Frames
  21. Format settings, CABAC : Yes
  22. Format settings, Reference : 4 frames
  23. Codec ID : V_MPEG4/ISO/AVC
  24. Duration : 1 h 32 min
  25. Bit rate mode : Variable
  26. Bit rate : 31.8 Mb/s
  27. Maximum bit rate : 35.0 Mb/s
  28. Width : 1 920 pixels
  29. Height : 1 080 pixels
  30. Display aspect ratio : 16:9
  31. Frame rate mode : Constant
  32. Frame rate : 25.000 FPS
  33. Color space : YUV
  34. Chroma subsampling : 4:2:0
  35. Bit depth : 8 bits
  36. Scan type : MBAFF
  37. Scan type, store method : Interleaved fields
  38. Scan order : Top Field First
  39. Bits/(Pixel*Frame) : 0.613
  40. Stream size : 20.6 GiB (84%)
  41. Title : Survivor (2015)[BDRemux 1080p]
  42. Language : Spanish
  43. Default : No
  44. Forced : No
  45. Original source medium : Blu-ray
  46.  
  47. Audio #1
  48. ID : 2
  49. Format : AC-3
  50. Format/Info : Audio Coding 3
  51. Commercial name : Dolby Digital
  52. Codec ID : A_AC3
  53. Duration : 1 h 32 min
  54. Bit rate mode : Constant
  55. Bit rate : 448 kb/s
  56. Channel(s) : 6 channels
  57. Channel layout : L R C LFE Ls Rs
  58. Sampling rate : 48.0 kHz
  59. Frame rate : 31.250 FPS (1536 SPF)
  60. Compression mode : Lossy
  61. Delay relative to video : 8 s 900 ms
  62. Stream size : 297 MiB (1%)
  63. Title : Surround 5.1 AC3
  64. Language : Spanish
  65. Service kind : Complete Main
  66. Default : Yes
  67. Forced : No
  68.  
  69. Audio #2
  70. ID : 3
  71. ID in the original source m : 4353 (0x1101)
  72. Format : DTS XLL
  73. Format/Info : Digital Theater Systems
  74. Commercial name : DTS-HD Master Audio
  75. Codec ID : A_DTS
  76. Duration : 1 h 32 min
  77. Bit rate mode : Variable
  78. Bit rate : 3 888 kb/s
  79. Channel(s) : 6 channels
  80. Channel layout : C L R Ls Rs LFE
  81. Sampling rate : 48.0 kHz
  82. Frame rate : 93.750 FPS (512 SPF)
  83. Bit depth : 24 bits
  84. Compression mode : Lossless
  85. Stream size : 2.52 GiB (10%)
  86. Title : Surround 5.1 DTS-HD M
  87. Language : English
  88. Default : No
  89. Forced : No
  90. Original source medium : Blu-ray
  91.  
  92. Audio #3
  93. ID : 4
  94. ID in the original source m : 4353 (0x1101)
  95. Format : DTS
  96. Format/Info : Digital Theater Systems
  97. Codec ID : A_DTS
  98. Duration : 1 h 32 min
  99. Bit rate mode : Constant
  100. Bit rate : 1 509 kb/s
  101. Channel(s) : 6 channels
  102. Channel layout : C L R Ls Rs LFE
  103. Sampling rate : 48.0 kHz
  104. Frame rate : 93.750 FPS (512 SPF)
  105. Bit depth : 24 bits
  106. Compression mode : Lossy
  107. Stream size : 1 002 MiB (4%)
  108. Title : Surround 5.1 DTS
  109. Language : English
  110. Default : No
  111. Forced : No
  112. Original source medium : Blu-ray
  113.  
  114. Text #1
  115. ID : 5
  116. Format : VobSub
  117. Muxing mode : zlib
  118. Codec ID : S_VOBSUB
  119. Codec ID/Info : Picture based subtitle format used on DVDs
  120. Duration : 1 h 12 min
  121. Bit rate : 123 b/s
  122. Count of elements : 18
  123. Stream size : 65.6 KiB (0%)
  124. Title : Forzados
  125. Language : Spanish
  126. Default : Yes
  127. Forced : Yes
  128.  
  129. Text #2
  130. ID : 6
  131. Format : VobSub
  132. Muxing mode : zlib
  133. Codec ID : S_VOBSUB
  134. Codec ID/Info : Picture based subtitle format used on DVDs
  135. Duration : 1 h 23 min
  136. Bit rate : 4 304 b/s
  137. Count of elements : 843
  138. Stream size : 2.57 MiB (0%)
  139. Title : Completos
  140. Language : Spanish
  141. Default : No
  142. Forced : No
  143.  
  144. Text #3
  145. ID : 7
  146. Format : VobSub
  147. Muxing mode : zlib
  148. Codec ID : S_VOBSUB
  149. Codec ID/Info : Picture based subtitle format used on DVDs
  150. Duration : 33 min 51 s
  151. Bit rate : 28 b/s
  152. Count of elements : 3
  153. Stream size : 7.16 KiB (0%)
  154. Title : Forzados
  155. Language : English
  156. Default : No
  157. Forced : No
  158.  
  159. Menu
  160. 00:00:00.000 : en:Chapter 01
  161. 00:09:22.560 : en:Chapter 02
  162. 00:19:51.160 : en:Chapter 03
  163. 00:31:22.600 : en:Chapter 04
  164. 00:42:22.560 : en:Chapter 05
  165. 00:52:26.280 : en:Chapter 06
  166. 01:03:27.240 : en:Chapter 07
  167. 01:13:06.160 : en:Chapter 08
  168. 01:24:25.280 : en:Chapter 09
  169.  
  170.  
Advertisement
Add Comment
Please, Sign In to add comment
Advertisement