SHARE
TWEET

Untitled

a guest Jan 15th, 2020 88 Never
Not a member of Pastebin yet? Sign Up, it unlocks many cool features!
  1. ffmpeg version 3.4.6-0ubuntu0.18.04.1 Copyright (c) 2000-2019 the FFmpeg developers
  2.   built with gcc 7 (Ubuntu 7.3.0-16ubuntu3)
  3.   configuration: --prefix=/usr --extra-version=0ubuntu0.18.04.1 --toolchain=hardened --libdir=/usr/lib/x86_64-linux-gnu --incdir=/usr/include/x86_64-linux-gnu --enable-gpl --disable-stripping --enable-avresample --enable-avisynth --enable-gnutls --enable-ladspa --enable-libass --enable-libbluray --enable-libbs2b --enable-libcaca --enable-libcdio --enable-libflite --enable-libfontconfig --enable-libfreetype --enable-libfribidi --enable-libgme --enable-libgsm --enable-libmp3lame --enable-libmysofa --enable-libopenjpeg --enable-libopenmpt --enable-libopus --enable-libpulse --enable-librubberband --enable-librsvg --enable-libshine --enable-libsnappy --enable-libsoxr --enable-libspeex --enable-libssh --enable-libtheora --enable-libtwolame --enable-libvorbis --enable-libvpx --enable-libwavpack --enable-libwebp --enable-libx265 --enable-libxml2 --enable-libxvid --enable-libzmq --enable-libzvbi --enable-omx --enable-openal --enable-opengl --enable-sdl2 --enable-libdc1394 --enable-libdrm --enable-libiec61883 --enable-chromaprint --enable-frei0r --enable-libopencv --enable-libx264 --enable-shared
  4.   libavutil      55. 78.100 / 55. 78.100
  5.   libavcodec     57.107.100 / 57.107.100
  6.   libavformat    57. 83.100 / 57. 83.100
  7.   libavdevice    57. 10.100 / 57. 10.100
  8.   libavfilter     6.107.100 /  6.107.100
  9.   libavresample   3.  7.  0 /  3.  7.  0
  10.   libswscale      4.  8.100 /  4.  8.100
  11.   libswresample   2.  9.100 /  2.  9.100
  12.   libpostproc    54.  7.100 / 54.  7.100
  13. Input #0, mov,mp4,m4a,3gp,3g2,mj2, from 'mystery_source.mp4':
  14.   Metadata:
  15.     major_brand     : mp42
  16.     minor_version   : 512
  17.     compatible_brands: isomiso2avc1mp41
  18.     creation_time   : 2020-01-15T02:02:24.000000Z
  19.     encoder         : HandBrake 20200113210839-5daeeef-master 2020011501
  20.   Duration: 01:29:35.45, start: 0.000000, bitrate: 10370 kb/s
  21.     Chapter #0:0: start 0.000000, end 321.196000
  22.     Metadata:
  23.       title           : Chapter 1
  24.     Chapter #0:1: start 321.196000, end 427.302000
  25.     Metadata:
  26.       title           : Chapter 2
  27.     Chapter #0:2: start 427.302000, end 427.385000
  28.     Metadata:
  29.       title           : Chapter 3
  30.     Chapter #0:3: start 427.385000, end 500.333000
  31.     Metadata:
  32.       title           : Chapter 3
  33.     Chapter #0:4: start 500.333000, end 817.275000
  34.     Metadata:
  35.       title           : Chapter 4
  36.     Chapter #0:5: start 817.275000, end 950.408000
  37.     Metadata:
  38.       title           : Chapter 5
  39.     Chapter #0:6: start 950.408000, end 1377.084000
  40.     Metadata:
  41.       title           : Chapter 6
  42.     Chapter #0:7: start 1377.084000, end 1541.707000
  43.     Metadata:
  44.       title           : Chapter 7
  45.     Chapter #0:8: start 1541.707000, end 1636.969000
  46.     Metadata:
  47.       title           : Chapter 8
  48.     Chapter #0:9: start 1636.969000, end 1768.517000
  49.     Metadata:
  50.       title           : Chapter 9
  51.     Chapter #0:10: start 1768.517000, end 1898.230000
  52.     Metadata:
  53.       title           : Chapter 10
  54.     Chapter #0:11: start 1898.230000, end 1898.313000
  55.     Metadata:
  56.       title           : Chapter 11
  57.     Chapter #0:12: start 1898.313000, end 2060.517000
  58.     Metadata:
  59.       title           : Chapter 11
  60.     Chapter #0:13: start 2060.517000, end 2173.546000
  61.     Metadata:
  62.       title           : Chapter 12
  63.     Chapter #0:14: start 2173.546000, end 2261.885000
  64.     Metadata:
  65.       title           : Chapter 13
  66.     Chapter #0:15: start 2261.885000, end 2261.968000
  67.     Metadata:
  68.       title           : Chapter 14
  69.     Chapter #0:16: start 2261.968000, end 2573.738000
  70.     Metadata:
  71.       title           : Chapter 14
  72.     Chapter #0:17: start 2573.738000, end 2860.691000
  73.     Metadata:
  74.       title           : Chapter 15
  75.     Chapter #0:18: start 2860.691000, end 2968.966000
  76.     Metadata:
  77.       title           : Chapter 16
  78.     Chapter #0:19: start 2968.966000, end 3132.630000
  79.     Metadata:
  80.       title           : Chapter 17
  81.     Chapter #0:20: start 3132.630000, end 3335.207000
  82.     Metadata:
  83.       title           : Chapter 18
  84.     Chapter #0:21: start 3335.207000, end 3535.699000
  85.     Metadata:
  86.       title           : Chapter 19
  87.     Chapter #0:22: start 3535.699000, end 3738.109000
  88.     Metadata:
  89.       title           : Chapter 20
  90.     Chapter #0:23: start 3738.109000, end 4214.502000
  91.     Metadata:
  92.       title           : Chapter 21
  93.     Chapter #0:24: start 4214.502000, end 4468.089000
  94.     Metadata:
  95.       title           : Chapter 22
  96.     Chapter #0:25: start 4468.089000, end 4793.414000
  97.     Metadata:
  98.       title           : Chapter 23
  99.     Chapter #0:26: start 4793.414000, end 5375.328000
  100.     Metadata:
  101.       title           : Chapter 24
  102.     Stream #0:0(und): Video: h264 (High) (avc1 / 0x31637661), yuv420p(tv, bt709), 1920x818 [SAR 1:1 DAR 960:409], 9144 kb/s, 23.98 fps, 23.98 tbr, 90k tbn, 180k tbc (default)
  103.     Metadata:
  104.       creation_time   : 2020-01-15T02:02:24.000000Z
  105.       handler_name    : VideoHandler
  106.     Stream #0:1(eng): Audio: aac (LC) (mp4a / 0x6134706D), 48000 Hz, stereo, fltp, 576 kb/s (default)
  107.     Metadata:
  108.       creation_time   : 2020-01-15T02:02:24.000000Z
  109.       handler_name    : Surround 5.1
  110.     Stream #0:2(eng): Audio: ac3 (ac-3 / 0x332D6361), 48000 Hz, 5.1(side), fltp, 640 kb/s
  111.     Metadata:
  112.       creation_time   : 2020-01-15T02:02:24.000000Z
  113.       handler_name    : Surround 5.1
  114.     Side data:
  115.       audio service type: main
  116.     Stream #0:3(eng): Data: bin_data (text / 0x74786574)
  117.     Metadata:
  118.       creation_time   : 2020-01-15T02:02:24.000000Z
  119.       handler_name    : SubtitleHandler
  120. [mp4 @ 0x558cdfba2000] track 2: codec frame size is not set
  121. Output #0, mp4, to 'mystery.mp4':
  122.   Metadata:
  123.     major_brand     : mp42
  124.     minor_version   : 512
  125.     compatible_brands: isomiso2avc1mp41
  126.     creation_time   : 2020-01-15T02:02:24.000000Z
  127.     encoder         : Lavf57.83.100
  128.     Chapter #0:0: start 0.000000, end 321.196000
  129.     Metadata:
  130.       title           : Chapter 1
  131.     Chapter #0:1: start 321.196000, end 427.302000
  132.     Metadata:
  133.       title           : Chapter 2
  134.     Chapter #0:2: start 427.302000, end 427.385000
  135.     Metadata:
  136.       title           : Chapter 3
  137.     Chapter #0:3: start 427.385000, end 500.333000
  138.     Metadata:
  139.       title           : Chapter 3
  140.     Chapter #0:4: start 500.333000, end 817.275000
  141.     Metadata:
  142.       title           : Chapter 4
  143.     Chapter #0:5: start 817.275000, end 950.408000
  144.     Metadata:
  145.       title           : Chapter 5
  146.     Chapter #0:6: start 950.408000, end 1377.084000
  147.     Metadata:
  148.       title           : Chapter 6
  149.     Chapter #0:7: start 1377.084000, end 1541.707000
  150.     Metadata:
  151.       title           : Chapter 7
  152.     Chapter #0:8: start 1541.707000, end 1636.969000
  153.     Metadata:
  154.       title           : Chapter 8
  155.     Chapter #0:9: start 1636.969000, end 1768.517000
  156.     Metadata:
  157.       title           : Chapter 9
  158.     Chapter #0:10: start 1768.517000, end 1898.230000
  159.     Metadata:
  160.       title           : Chapter 10
  161.     Chapter #0:11: start 1898.230000, end 1898.313000
  162.     Metadata:
  163.       title           : Chapter 11
  164.     Chapter #0:12: start 1898.313000, end 2060.517000
  165.     Metadata:
  166.       title           : Chapter 11
  167.     Chapter #0:13: start 2060.517000, end 2173.546000
  168.     Metadata:
  169.       title           : Chapter 12
  170.     Chapter #0:14: start 2173.546000, end 2261.885000
  171.     Metadata:
  172.       title           : Chapter 13
  173.     Chapter #0:15: start 2261.885000, end 2261.968000
  174.     Metadata:
  175.       title           : Chapter 14
  176.     Chapter #0:16: start 2261.968000, end 2573.738000
  177.     Metadata:
  178.       title           : Chapter 14
  179.     Chapter #0:17: start 2573.738000, end 2860.691000
  180.     Metadata:
  181.       title           : Chapter 15
  182.     Chapter #0:18: start 2860.691000, end 2968.966000
  183.     Metadata:
  184.       title           : Chapter 16
  185.     Chapter #0:19: start 2968.966000, end 3132.630000
  186.     Metadata:
  187.       title           : Chapter 17
  188.     Chapter #0:20: start 3132.630000, end 3335.207000
  189.     Metadata:
  190.       title           : Chapter 18
  191.     Chapter #0:21: start 3335.207000, end 3535.699000
  192.     Metadata:
  193.       title           : Chapter 19
  194.     Chapter #0:22: start 3535.699000, end 3738.109000
  195.     Metadata:
  196.       title           : Chapter 20
  197.     Chapter #0:23: start 3738.109000, end 4214.502000
  198.     Metadata:
  199.       title           : Chapter 21
  200.     Chapter #0:24: start 4214.502000, end 4468.089000
  201.     Metadata:
  202.       title           : Chapter 22
  203.     Chapter #0:25: start 4468.089000, end 4793.414000
  204.     Metadata:
  205.       title           : Chapter 23
  206.     Chapter #0:26: start 4793.414000, end 5375.328000
  207.     Metadata:
  208.       title           : Chapter 24
  209.     Stream #0:0(und): Video: h264 (High) (avc1 / 0x31637661), yuv420p(tv, bt709), 1920x818 [SAR 1:1 DAR 960:409], q=2-31, 9144 kb/s, 23.98 fps, 23.98 tbr, 90k tbn, 90k tbc (default)
  210.     Metadata:
  211.       creation_time   : 2020-01-15T02:02:24.000000Z
  212.       handler_name    : VideoHandler
  213.     Stream #0:1(eng): Audio: aac (LC) (mp4a / 0x6134706D), 48000 Hz, stereo, fltp, 576 kb/s (default)
  214.     Metadata:
  215.       creation_time   : 2020-01-15T02:02:24.000000Z
  216.       handler_name    : Stereo
  217.     Stream #0:2(eng): Audio: ac3 (ac-3 / 0x332D6361), 48000 Hz, 5.1(side), fltp, 640 kb/s
  218.     Metadata:
  219.       creation_time   : 2020-01-15T02:02:24.000000Z
  220.       handler_name    : Surround 5.1
  221.     Side data:
  222.       audio service type: main
  223.     Stream #0:3(eng): Data: bin_data (text / 0x74786574)
  224.     Metadata:
  225.       creation_time   : 2020-01-15T02:02:24.000000Z
  226.       handler_name    : SubtitleHandler
  227. Stream mapping:
  228.   Stream #0:0 -> #0:0 (copy)
  229.   Stream #0:1 -> #0:1 (copy)
  230.   Stream #0:2 -> #0:2 (copy)
  231.   Stream #0:3 -> #0:3 (copy)
  232. Press [q] to stop, [?] for help
  233. frame= 8737 fps=0.0 q=-1.0 size=  475649kB time=00:06:04.28 bitrate=10696.4kbits/s speed= 728x    
  234. frame=16762 fps=16761 q=-1.0 size=  977665kB time=00:11:39.00 bitrate=11457.8kbits/s speed= 699x    
  235. frame=16918 fps=11012 q=-1.0 size=  989697kB time=00:11:45.49 bitrate=11492.0kbits/s speed= 459x    
  236. frame=16984 fps=8323 q=-1.0 size=  996097kB time=00:11:48.28 bitrate=11520.8kbits/s speed= 347x    
  237. frame=17046 fps=6457 q=-1.0 size= 1000449kB time=00:11:50.84 bitrate=11529.5kbits/s speed= 269x    
  238. frame=17198 fps=5358 q=-1.0 size= 1012225kB time=00:11:57.20 bitrate=11561.7kbits/s speed= 223x    
  239. frame=17348 fps=4568 q=-1.0 size= 1026305kB time=00:12:03.43 bitrate=11621.6kbits/s speed= 191x    
  240. frame=17423 fps=4054 q=-1.0 size= 1032961kB time=00:12:06.58 bitrate=11646.3kbits/s speed= 169x    
  241. frame=17473 fps=3614 q=-1.0 size= 1036545kB time=00:12:08.66 bitrate=11653.4kbits/s speed= 151x    
  242. frame=17489 fps=3021 q=-1.0 size= 1037569kB time=00:12:09.31 bitrate=11654.5kbits/s speed= 126x    
  243. frame=17554 fps=2767 q=-1.0 size= 1044481kB time=00:12:12.03 bitrate=11688.5kbits/s speed= 115x    
  244. frame=17585 fps=2560 q=-1.0 size= 1047809kB time=00:12:13.33 bitrate=11705.0kbits/s speed= 107x    
  245. frame=17640 fps=2388 q=-1.0 size= 1053441kB time=00:12:15.61 bitrate=11731.4kbits/s speed=99.6x    
  246. frame=17696 fps=2240 q=-1.0 size= 1059329kB time=00:12:17.94 bitrate=11759.7kbits/s speed=93.4x    
  247. frame=17754 fps=2102 q=-1.0 size= 1063169kB time=00:12:20.37 bitrate=11763.6kbits/s speed=87.7x    
  248. frame=17863 fps=1986 q=-1.0 size= 1071617kB time=00:12:24.91 bitrate=11784.8kbits/s speed=82.8x    
  249. frame=17992 fps=1873 q=-1.0 size= 1083649kB time=00:12:30.29 bitrate=11831.7kbits/s speed=78.1x    
  250. frame=18098 fps=1779 q=-1.0 size= 1094657kB time=00:12:34.71 bitrate=11881.9kbits/s speed=74.2x    
  251. frame=18172 fps=1702 q=-1.0 size= 1102337kB time=00:12:37.80 bitrate=11916.5kbits/s speed=  71x    
  252. frame=18215 fps=1629 q=-1.0 size= 1106945kB time=00:12:39.61 bitrate=11937.8kbits/s speed=67.9x    
  253. frame=18268 fps=1555 q=-1.0 size= 1112065kB time=00:12:41.81 bitrate=11958.4kbits/s speed=64.8x    
  254. frame=18311 fps=1484 q=-1.0 size= 1116417kB time=00:12:43.60 bitrate=11977.0kbits/s speed=61.9x    
  255. frame=18744 fps=1460 q=-1.0 size= 1165313kB time=00:13:01.65 bitrate=12212.8kbits/s speed=60.9x    
  256. frame=19275 fps=1445 q=-1.0 size= 1217537kB time=00:13:23.81 bitrate=12408.3kbits/s speed=60.3x    
  257. frame=19782 fps=1430 q=-1.0 size= 1277441kB time=00:13:44.95 bitrate=12685.3kbits/s speed=59.6x    
  258. frame=20666 fps=1442 q=-1.0 size= 1327617kB time=00:14:21.81 bitrate=12619.6kbits/s speed=60.1x    
  259. frame=21571 fps=1454 q=-1.0 size= 1383169kB time=00:14:59.57 bitrate=12595.8kbits/s speed=60.6x    
  260. frame=22188 fps=1447 q=-1.0 size= 1427969kB time=00:15:25.30 bitrate=12642.2kbits/s speed=60.3x    
  261. frame=22757 fps=1415 q=-1.0 size= 1469441kB time=00:15:49.05 bitrate=12683.9kbits/s speed=  59x    
  262. frame=22922 fps=1383 q=-1.0 size= 1496577kB time=00:15:55.93 bitrate=12825.2kbits/s speed=57.7x    
  263. frame=23058 fps=1344 q=-1.0 size= 1497857kB time=00:16:01.59 bitrate=12760.5kbits/s speed=56.1x    
  264. frame=23229 fps=1314 q=-1.0 size= 1507841kB time=00:16:08.72 bitrate=12751.0kbits/s speed=54.8x    
  265. frame=23402 fps=1284 q=-1.0 size= 1513473kB time=00:16:15.93 bitrate=12704.1kbits/s speed=53.5x    
  266. frame=23532 fps=1253 q=-1.0 size= 1517313kB time=00:16:21.37 bitrate=12665.8kbits/s speed=52.2x    
  267. frame=23776 fps=1229 q=-1.0 size= 1526273kB time=00:16:31.54 bitrate=12609.8kbits/s speed=51.3x    
  268. frame=24009 fps=1204 q=-1.0 size= 1537025kB time=00:16:41.28 bitrate=12575.2kbits/s speed=50.2x    
  269. frame=24155 fps=1181 q=-1.0 size= 1544705kB time=00:16:47.36 bitrate=12561.8kbits/s speed=49.2x    
  270. frame=24345 fps=1157 q=-1.0 size= 1555969kB time=00:16:55.27 bitrate=12554.7kbits/s speed=48.3x    
  271. frame=24557 fps=1138 q=-1.0 size= 1569025kB time=00:17:04.10 bitrate=12550.9kbits/s speed=47.4x    
  272. frame=24744 fps=1116 q=-1.0 size= 1580801kB time=00:17:11.91 bitrate=12549.4kbits/s speed=46.5x    
  273. frame=24815 fps=1091 q=-1.0 size= 1584385kB time=00:17:14.87 bitrate=12541.9kbits/s speed=45.5x    
  274. frame=24932 fps=1067 q=-1.0 size= 1589505kB time=00:17:19.77 bitrate=12523.2kbits/s speed=44.5x    
  275. frame=25143 fps=1051 q=-1.0 size= 1601281kB time=00:17:28.55 bitrate=12510.3kbits/s speed=43.8x    
  276. frame=25307 fps=1034 q=-1.0 size= 1608449kB time=00:17:35.40 bitrate=12484.7kbits/s speed=43.1x    
  277. frame=26394 fps=1057 q=-1.0 size= 1656833kB time=00:18:20.72 bitrate=12330.8kbits/s speed=44.1x    
  278. frame=27569 fps=1081 q=-1.0 size= 1707777kB time=00:19:09.75 bitrate=12167.9kbits/s speed=45.1x    
  279. frame=28599 fps=1100 q=-1.0 size= 1750529kB time=00:19:52.69 bitrate=12023.4kbits/s speed=45.9x    
  280. frame=29796 fps=1124 q=-1.0 size= 1805825kB time=00:20:42.64 bitrate=11904.7kbits/s speed=46.9x    
  281. frame=30738 fps=1138 q=-1.0 size= 1857281kB time=00:21:21.91 bitrate=11868.8kbits/s speed=47.5x    
  282. frame=31758 fps=1155 q=-1.0 size= 1914369kB time=00:22:04.45 bitrate=11840.7kbits/s speed=48.2x    
  283. frame=32699 fps=1168 q=-1.0 size= 1967361kB time=00:22:43.71 bitrate=11818.2kbits/s speed=48.7x    
  284. frame=33525 fps=1176 q=-1.0 size= 2022145kB time=00:23:18.17 bitrate=11847.9kbits/s speed=49.1x    
  285. frame=34941 fps=1205 q=-1.0 size= 2074369kB time=00:24:17.21 bitrate=11661.5kbits/s speed=50.2x    
  286. frame=35991 fps=1220 q=-1.0 size= 2122241kB time=00:25:01.01 bitrate=11582.4kbits/s speed=50.9x    
  287. frame=37196 fps=1240 q=-1.0 size= 2179841kB time=00:25:51.25 bitrate=11511.5kbits/s speed=51.7x    
  288. frame=38153 fps=1251 q=-1.0 size= 2218753kB time=00:26:31.17 bitrate=11423.0kbits/s speed=52.2x    
  289. frame=39361 fps=1269 q=-1.0 size= 2279425kB time=00:27:21.55 bitrate=11375.2kbits/s speed=52.9x    
  290. frame=39848 fps=1265 q=-1.0 size= 2296065kB time=00:27:41.88 bitrate=11318.1kbits/s speed=52.7x    
  291. frame=40324 fps=1260 q=-1.0 size= 2330881kB time=00:28:01.72 bitrate=11354.2kbits/s speed=52.5x    
  292. frame=40553 fps=1247 q=-1.0 size= 2342401kB time=00:28:11.28 bitrate=11345.8kbits/s speed=  52x    
  293. frame=41187 fps=1244 q=-1.0 size= 2375169kB time=00:28:37.71 bitrate=11327.5kbits/s speed=51.9x    
  294. frame=41548 fps=1236 q=-1.0 size= 2394881kB time=00:28:52.77 bitrate=11322.2kbits/s speed=51.6x    
  295. frame=42016 fps=1232 q=-1.0 size= 2420225kB time=00:29:12.31 bitrate=11314.5kbits/s speed=51.4x    
  296. frame=42209 fps=1219 q=-1.0 size= 2432001kB time=00:29:20.34 bitrate=11317.6kbits/s speed=50.8x    
  297. frame=42422 fps=1207 q=-1.0 size= 2443777kB time=00:29:29.23 bitrate=11315.3kbits/s speed=50.3x    
  298. frame=42599 fps=1193 q=-1.0 size= 2457601kB time=00:29:36.61 bitrate=11332.0kbits/s speed=49.7x    
  299. frame=42831 fps=1183 q=-1.0 size= 2470145kB time=00:29:46.29 bitrate=11328.1kbits/s speed=49.3x    
  300. frame=43014 fps=1169 q=-1.0 size= 2480129kB time=00:29:53.94 bitrate=11325.5kbits/s speed=48.8x    
  301. frame=43276 fps=1158 q=-1.0 size= 2495745kB time=00:30:04.85 bitrate=11327.8kbits/s speed=48.3x    
  302. frame=43465 fps=1145 q=-1.0 size= 2504961kB time=00:30:12.73 bitrate=11320.3kbits/s speed=47.8x    
  303. frame=43702 fps=1134 q=-1.0 size= 2518273kB time=00:30:22.61 bitrate=11318.7kbits/s speed=47.3x    
  304. frame=44004 fps=1124 q=-1.0 size= 2533889kB time=00:30:35.22 bitrate=11310.7kbits/s speed=46.9x    
  305. frame=44231 fps=1116 q=-1.0 size= 2543617kB time=00:30:44.69 bitrate=11295.8kbits/s speed=46.5x    
  306. frame=44490 fps=1106 q=-1.0 size= 2557953kB time=00:30:55.48 bitrate=11293.4kbits/s speed=46.1x    
  307. frame=44759 fps=1097 q=-1.0 size= 2568193kB time=00:31:06.70 bitrate=11270.4kbits/s speed=45.8x    
  308. frame=45004 fps=1090 q=-1.0 size= 2581249kB time=00:31:16.92 bitrate=11266.1kbits/s speed=45.5x    
  309. frame=45284 fps=1083 q=-1.0 size= 2595329kB time=00:31:28.59 bitrate=11257.5kbits/s speed=45.1x    
  310. frame=45581 fps=1075 q=-1.0 size= 2616577kB time=00:31:40.98 bitrate=11275.7kbits/s speed=44.8x    
  311. frame=45762 fps=1065 q=-1.0 size= 2617089kB time=00:31:48.53 bitrate=11233.3kbits/s speed=44.4x    
  312. frame=46072 fps=1060 q=-1.0 size= 2633473kB time=00:32:01.46 bitrate=11227.6kbits/s speed=44.2x    
  313. frame=46368 fps=1053 q=-1.0 size= 2643969kB time=00:32:13.81 bitrate=11200.3kbits/s speed=43.9x    
  314. frame=46679 fps=1047 q=-1.0 size= 2657025kB time=00:32:26.77 bitrate=11180.7kbits/s speed=43.7x    
  315. frame=47060 fps=1042 q=-1.0 size= 2671617kB time=00:32:42.68 bitrate=11151.0kbits/s speed=43.4x    
  316. frame=47481 fps=1039 q=-1.0 size= 2686977kB time=00:33:00.24 bitrate=11115.6kbits/s speed=43.3x    
  317. frame=47743 fps=1033 q=-1.0 size= 2694657kB time=00:33:11.16 bitrate=11086.3kbits/s speed=43.1x    
  318. frame=48638 fps=1041 q=-1.0 size= 2729217kB time=00:33:48.52 bitrate=11021.7kbits/s speed=43.4x    
  319. frame=49759 fps=1054 q=-1.0 size= 2782209kB time=00:34:35.24 bitrate=10982.7kbits/s speed=43.9x    
  320. frame=51462 fps=1078 q=-1.0 size= 2835201kB time=00:35:46.29 bitrate=10821.4kbits/s speed=  45x    
  321. frame=52648 fps=1092 q=-1.0 size= 2883841kB time=00:36:35.73 bitrate=10759.2kbits/s speed=45.5x    
  322. frame=53726 fps=1103 q=-1.0 size= 2938113kB time=00:37:20.73 bitrate=10741.6kbits/s speed=  46x    
  323. frame=54749 fps=1112 q=-1.0 size= 2990081kB time=00:38:03.36 bitrate=10727.5kbits/s speed=46.4x    
  324. frame=55505 fps=1110 q=-1.0 size= 3028225kB time=00:38:34.90 bitrate=10716.3kbits/s speed=46.3x    
  325. frame=55760 fps=1103 q=-1.0 size= 3041281kB time=00:38:45.56 bitrate=10713.2kbits/s speed=  46x    
  326. frame=55912 fps=1095 q=-1.0 size= 3048961kB time=00:38:51.88 bitrate=10711.1kbits/s speed=45.7x    
  327. frame=56013 fps=1086 q=-1.0 size= 3054337kB time=00:38:56.10 bitrate=10710.6kbits/s speed=45.3x    
  328. frame=56092 fps=1076 q=-1.0 size= 3058689kB time=00:38:59.41 bitrate=10710.7kbits/s speed=44.9x    
  329. frame=56166 fps=1067 q=-1.0 size= 3062017kB time=00:39:02.48 bitrate=10708.3kbits/s speed=44.5x    
  330. frame=56291 fps=1058 q=-1.0 size= 3067393kB time=00:39:07.69 bitrate=10703.3kbits/s speed=44.1x    
  331. frame=56543 fps=1052 q=-1.0 size= 3083265kB time=00:39:18.20 bitrate=10710.7kbits/s speed=43.9x    
  332. frame=56747 fps=1045 q=-1.0 size= 3093761kB time=00:39:26.71 bitrate=10708.6kbits/s speed=43.6x    
  333. frame=56941 fps=1038 q=-1.0 size= 3103233kB time=00:39:34.80 bitrate=10704.7kbits/s speed=43.3x    
  334. frame=57048 fps=1029 q=-1.0 size= 3109889kB time=00:39:39.26 bitrate=10707.6kbits/s speed=42.9x    
  335. frame=57192 fps=1022 q=-1.0 size= 3116545kB time=00:39:45.27 bitrate=10703.5kbits/s speed=42.6x    
  336. frame=57354 fps=1014 q=-1.0 size= 3124481kB time=00:39:52.02 bitrate=10700.4kbits/s speed=42.3x    
  337. frame=57538 fps=1008 q=-1.0 size= 3133953kB time=00:39:59.70 bitrate=10698.6kbits/s speed=  42x    
  338. frame=58778 fps=1021 q=-1.0 size= 3191553kB time=00:40:51.41 bitrate=10665.4kbits/s speed=42.6x    
  339. frame=59687 fps=1028 q=-1.0 size= 3243521kB time=00:41:29.32 bitrate=10674.0kbits/s speed=42.9x    
  340. frame=60747 fps=1037 q=-1.0 size= 3299585kB time=00:42:13.54 bitrate=10668.9kbits/s speed=43.2x    
  341. frame=61598 fps=1043 q=-1.0 size= 3347713kB time=00:42:49.04 bitrate=10675.0kbits/s speed=43.5x    
  342. frame=62534 fps=1050 q=-1.0 size= 3399937kB time=00:43:28.06 bitrate=10679.3kbits/s speed=43.8x    
  343. frame=63413 fps=1055 q=-1.0 size= 3461121kB time=00:44:04.73 bitrate=10720.8kbits/s speed=  44x    
  344. frame=64508 fps=1065 q=-1.0 size= 3515137kB time=00:44:50.42 bitrate=10703.1kbits/s speed=44.4x    
  345. frame=65237 fps=1068 q=-1.0 size= 3556609kB time=00:45:20.82 bitrate=10708.4kbits/s speed=44.5x    
  346. frame=66097 fps=1073 q=-1.0 size= 3609089kB time=00:45:56.67 bitrate=10725.1kbits/s speed=44.8x    
  347. frame=66982 fps=1079 q=-1.0 size= 3659009kB time=00:46:33.59 bitrate=10729.8kbits/s speed=  45x    
  348. frame=68057 fps=1087 q=-1.0 size= 3716097kB time=00:47:18.42 bitrate=10725.1kbits/s speed=45.4x    
  349. frame=69060 fps=1095 q=-1.0 size= 3767553kB time=00:48:00.25 bitrate=10715.6kbits/s speed=45.7x    
  350. frame=69961 fps=1100 q=-1.0 size= 3807233kB time=00:48:37.84 bitrate=10689.0kbits/s speed=45.9x    
  351. frame=70470 fps=1099 q=-1.0 size= 3829761kB time=00:48:59.06 bitrate=10674.6kbits/s speed=45.8x    
  352. frame=70823 fps=1096 q=-1.0 size= 3849985kB time=00:49:13.78 bitrate=10677.5kbits/s speed=45.7x    
  353. frame=71584 fps=1099 q=-1.0 size= 3882497kB time=00:49:45.53 bitrate=10653.2kbits/s speed=45.8x    
  354. frame=72237 fps=1101 q=-1.0 size= 3910657kB time=00:50:12.77 bitrate=10633.4kbits/s speed=45.9x    
  355. frame=72454 fps=1095 q=-1.0 size= 3919361kB time=00:50:21.82 bitrate=10625.2kbits/s speed=45.7x    
  356. frame=72795 fps=1090 q=-1.0 size= 3934209kB time=00:50:36.05 bitrate=10615.4kbits/s speed=45.5x    
  357. frame=72992 fps=1084 q=-1.0 size= 3942145kB time=00:50:44.25 bitrate=10608.2kbits/s speed=45.2x    
  358. frame=73058 fps=1074 q=-1.0 size= 3944705kB time=00:50:47.00 bitrate=10605.5kbits/s speed=44.8x    
  359. frame=73114 fps=1067 q=-1.0 size= 3947265kB time=00:50:49.33 bitrate=10604.3kbits/s speed=44.5x    
  360. frame=73267 fps=1061 q=-1.0 size= 3953665kB time=00:50:55.72 bitrate=10599.3kbits/s speed=44.3x    
  361. frame=73522 fps=1056 q=-1.0 size= 3971841kB time=00:51:06.36 bitrate=10611.0kbits/s speed=  44x    
  362. frame=73828 fps=1051 q=-1.0 size= 3984129kB time=00:51:19.12 bitrate=10599.8kbits/s speed=43.8x    
  363. frame=73946 fps=1044 q=-1.0 size= 3989249kB time=00:51:24.05 bitrate=10596.4kbits/s speed=43.6x    
  364. frame=74031 fps=1037 q=-1.0 size= 3993089kB time=00:51:27.61 bitrate=10594.4kbits/s speed=43.3x    
  365. frame=74121 fps=1030 q=-1.0 size= 3997697kB time=00:51:31.34 bitrate=10593.8kbits/s speed=  43x    
  366. frame=74288 fps=1025 q=-1.0 size= 4007425kB time=00:51:38.30 bitrate=10595.7kbits/s speed=42.7x    
  367. frame=74453 fps=1019 q=-1.0 size= 4016385kB time=00:51:45.19 bitrate=10595.9kbits/s speed=42.5x    
  368. frame=74710 fps=1013 q=-1.0 size= 4031745kB time=00:51:55.92 bitrate=10599.8kbits/s speed=42.3x    
  369. frame=74976 fps=1010 q=-1.0 size= 4045313kB time=00:52:07.03 bitrate=10597.6kbits/s speed=42.1x    
  370. frame=75043 fps=1003 q=-1.0 size= 4048641kB time=00:52:09.81 bitrate=10596.9kbits/s speed=41.8x    
  371. frame=75097 fps=997 q=-1.0 size= 4051201kB time=00:52:12.05 bitrate=10596.1kbits/s speed=41.6x    
  372. frame=75207 fps=991 q=-1.0 size= 4068353kB time=00:52:16.63 bitrate=10625.4kbits/s speed=41.3x    
  373. frame=75344 fps=986 q=-1.0 size= 4068353kB time=00:52:22.36 bitrate=10606.0kbits/s speed=41.1x    
  374. frame=75523 fps=982 q=-1.0 size= 4078593kB time=00:52:29.84 bitrate=10607.5kbits/s speed=  41x    
  375. frame=76051 fps=982 q=-1.0 size= 4113409kB time=00:52:51.84 bitrate=10623.8kbits/s speed=  41x    
  376. frame=76891 fps=987 q=-1.0 size= 4168961kB time=00:53:26.87 bitrate=10649.7kbits/s speed=41.2x    
  377. frame=77776 fps=992 q=-1.0 size= 4222977kB time=00:54:03.80 bitrate=10664.8kbits/s speed=41.4x    
  378. frame=78557 fps=995 q=-1.0 size= 4279041kB time=00:54:36.39 bitrate=10698.9kbits/s speed=41.5x    
  379. frame=79259 fps=998 q=-1.0 size= 4331521kB time=00:55:05.63 bitrate=10734.3kbits/s speed=41.6x    
  380. frame=79857 fps=999 q=-1.0 size= 4381441kB time=00:55:30.58 bitrate=10776.7kbits/s speed=41.7x    
  381. frame=80694 fps=1003 q=-1.0 size= 4432129kB time=00:56:05.49 bitrate=10788.3kbits/s speed=41.9x    
  382. frame=81747 fps=1010 q=-1.0 size= 4487937kB time=00:56:49.40 bitrate=10783.4kbits/s speed=42.1x    
  383. frame=81984 fps=1006 q=-1.0 size= 4498689kB time=00:56:59.30 bitrate=10778.0kbits/s speed=  42x    
  384. frame=82204 fps=1001 q=-1.0 size= 4509697kB time=00:57:08.47 bitrate=10775.5kbits/s speed=41.8x    
  385. frame=82422 fps=997 q=-1.0 size= 4523521kB time=00:57:17.56 bitrate=10779.9kbits/s speed=41.6x    
  386. frame=82519 fps=992 q=-1.0 size= 4528897kB time=00:57:21.62 bitrate=10780.0kbits/s speed=41.4x    
  387. frame=82579 fps=986 q=-1.0 size= 4531457kB time=00:57:24.12 bitrate=10778.3kbits/s speed=41.1x    
  388. frame=82699 fps=982 q=-1.0 size= 4536065kB time=00:57:29.11 bitrate=10773.6kbits/s speed=40.9x    
  389. frame=82870 fps=978 q=-1.0 size= 4547841kB time=00:57:36.24 bitrate=10779.3kbits/s speed=40.8x    
  390. frame=83013 fps=973 q=-1.0 size= 4558849kB time=00:57:42.20 bitrate=10786.8kbits/s speed=40.6x    
  391. frame=83163 fps=969 q=-1.0 size= 4568577kB time=00:57:48.47 bitrate=10790.3kbits/s speed=40.4x    
  392. frame=83234 fps=964 q=-1.0 size= 4573441kB time=00:57:51.45 bitrate=10792.5kbits/s speed=40.2x    
  393. frame=83370 fps=960 q=-1.0 size= 4578049kB time=00:57:57.09 bitrate=10785.8kbits/s speed=  40x    
  394. frame=83544 fps=956 q=-1.0 size= 4586497kB time=00:58:04.37 bitrate=10783.2kbits/s speed=39.9x    
  395. frame=83631 fps=951 q=-1.0 size= 4589569kB time=00:58:08.00 bitrate=10779.2kbits/s speed=39.6x    
  396. frame=84719 fps=958 q=-1.0 size= 4643073kB time=00:58:53.37 bitrate=10764.8kbits/s speed=39.9x    
  397. frame=85681 fps=963 q=-1.0 size= 4687105kB time=00:59:33.50 bitrate=10744.8kbits/s speed=40.2x    
  398. frame=86704 fps=969 q=-1.0 size= 4737281kB time=01:00:16.18 bitrate=10731.7kbits/s speed=40.4x    
  399. frame=87422 fps=972 q=-1.0 size= 4791809kB time=01:00:46.10 bitrate=10766.1kbits/s speed=40.5x    
  400. frame=88157 fps=974 q=-1.0 size= 4845313kB time=01:01:16.79 bitrate=10795.5kbits/s speed=40.6x    
  401. frame=89310 fps=982 q=-1.0 size= 4911617kB time=01:02:04.88 bitrate=10801.9kbits/s speed=40.9x    
  402. frame=90698 fps=991 q=-1.0 size= 4962561kB time=01:03:02.74 bitrate=10747.0kbits/s speed=41.4x    
  403. frame=91506 fps=995 q=-1.0 size= 5004289kB time=01:03:36.44 bitrate=10741.7kbits/s speed=41.5x    
  404. frame=92395 fps=999 q=-1.0 size= 5056001kB time=01:04:13.51 bitrate=10748.3kbits/s speed=41.7x    
  405. frame=93283 fps=1003 q=-1.0 size= 5106689kB time=01:04:50.56 bitrate=10752.7kbits/s speed=41.8x    
  406. frame=94244 fps=1008 q=-1.0 size= 5158657kB time=01:05:30.66 bitrate=10751.3kbits/s speed=  42x    
  407. frame=95277 fps=1014 q=-1.0 size= 5215489kB time=01:06:13.73 bitrate=10751.9kbits/s speed=42.3x    
  408. frame=96327 fps=1020 q=-1.0 size= 5271297kB time=01:06:57.51 bitrate=10748.6kbits/s speed=42.5x    
  409. frame=96656 fps=1018 q=-1.0 size= 5287937kB time=01:07:11.25 bitrate=10745.7kbits/s speed=42.4x    
  410. frame=97210 fps=1018 q=-1.0 size= 5315073kB time=01:07:34.35 bitrate=10739.3kbits/s speed=42.5x    
  411. frame=97798 fps=1018 q=-1.0 size= 5348865kB time=01:07:58.87 bitrate=10742.6kbits/s speed=42.4x    
  412. frame=98023 fps=1014 q=-1.0 size= 5358081kB time=01:08:08.25 bitrate=10736.5kbits/s speed=42.3x    
  413. frame=98581 fps=1014 q=-1.0 size= 5392129kB time=01:08:31.54 bitrate=10743.5kbits/s speed=42.3x    
  414. frame=98843 fps=1012 q=-1.0 size= 5403137kB time=01:08:42.45 bitrate=10736.9kbits/s speed=42.2x    
  415. frame=99125 fps=1008 q=-1.0 size= 5416193kB time=01:08:54.22 bitrate=10732.2kbits/s speed=  42x    
  416. frame=99258 fps=1004 q=-1.0 size= 5422593kB time=01:08:59.77 bitrate=10730.5kbits/s speed=41.9x    
  417. frame=99319 fps=998 q=-1.0 size= 5425665kB time=01:09:02.31 bitrate=10730.0kbits/s speed=41.6x    
  418. frame=99389 fps=994 q=-1.0 size= 5428993kB time=01:09:05.22 bitrate=10729.0kbits/s speed=41.5x    
  419. frame=99474 fps=989 q=-1.0 size= 5432577kB time=01:09:08.77 bitrate=10726.9kbits/s speed=41.3x    
  420. frame=99698 fps=986 q=-1.0 size= 5447937kB time=01:09:18.12 bitrate=10733.1kbits/s speed=41.1x    
  421. frame=99926 fps=983 q=-1.0 size= 5457665kB time=01:09:27.62 bitrate=10727.7kbits/s speed=  41x    
  422. frame=100217 fps=980 q=-1.0 size= 5470465kB time=01:09:39.77 bitrate=10721.7kbits/s speed=40.9x    
  423. frame=100281 fps=976 q=-1.0 size= 5473537kB time=01:09:42.44 bitrate=10720.8kbits/s speed=40.7x    
  424. frame=100348 fps=971 q=-1.0 size= 5476097kB time=01:09:45.24 bitrate=10718.7kbits/s speed=40.5x    
  425. frame=100434 fps=967 q=-1.0 size= 5480193kB time=01:09:48.82 bitrate=10717.5kbits/s speed=40.3x    
  426. frame=100573 fps=963 q=-1.0 size= 5490177kB time=01:09:54.61 bitrate=10722.2kbits/s speed=40.2x    
  427. frame=100802 fps=960 q=-1.0 size= 5503489kB time=01:10:04.16 bitrate=10723.8kbits/s speed=  40x    
  428. frame=100985 fps=957 q=-1.0 size= 5514497kB time=01:10:11.80 bitrate=10725.8kbits/s speed=39.9x    
  429. frame=101091 fps=953 q=-1.0 size= 5536769kB time=01:10:16.21 bitrate=10757.8kbits/s speed=39.7x    
  430. frame=101210 fps=950 q=-1.0 size= 5536769kB time=01:10:21.17 bitrate=10745.2kbits/s speed=39.6x    
  431. frame=101349 fps=946 q=-1.0 size= 5540097kB time=01:10:26.98 bitrate=10736.8kbits/s speed=39.5x    
  432. frame=101485 fps=943 q=-1.0 size= 5547265kB time=01:10:32.66 bitrate=10736.3kbits/s speed=39.3x    
  433. frame=101924 fps=943 q=-1.0 size= 5563137kB time=01:10:50.98 bitrate=10720.6kbits/s speed=39.3x    
  434. frame=102562 fps=944 q=-1.0 size= 5606145kB time=01:11:17.56 bitrate=10736.4kbits/s speed=39.4x    
  435. frame=103334 fps=947 q=-1.0 size= 5663745kB time=01:11:49.78 bitrate=10765.6kbits/s speed=39.5x    
  436. frame=104238 fps=951 q=-1.0 size= 5720577kB time=01:12:27.47 bitrate=10779.3kbits/s speed=39.7x    
  437. frame=105198 fps=955 q=-1.0 size= 5773825kB time=01:13:07.51 bitrate=10780.4kbits/s speed=39.8x    
  438. frame=105931 fps=957 q=-1.0 size= 5820929kB time=01:13:38.10 bitrate=10793.1kbits/s speed=39.9x    
  439. frame=106755 fps=961 q=-1.0 size= 5879041kB time=01:14:12.47 bitrate=10816.7kbits/s speed=40.1x    
  440. frame=107501 fps=963 q=-1.0 size= 5920257kB time=01:14:43.56 bitrate=10817.0kbits/s speed=40.2x    
  441. frame=107623 fps=957 q=-1.0 size= 5927425kB time=01:14:48.66 bitrate=10817.8kbits/s speed=39.9x    
  442. frame=107743 fps=954 q=-1.0 size= 5935361kB time=01:14:53.69 bitrate=10820.2kbits/s speed=39.8x    
  443. frame=107865 fps=951 q=-1.0 size= 5943297kB time=01:14:58.75 bitrate=10822.4kbits/s speed=39.6x    
  444. frame=107912 fps=947 q=-1.0 size= 5947649kB time=01:15:00.73 bitrate=10825.6kbits/s speed=39.5x    
  445. frame=107986 fps=943 q=-1.0 size= 5953793kB time=01:15:03.80 bitrate=10829.4kbits/s speed=39.3x    
  446. frame=108042 fps=939 q=-1.0 size= 5958145kB time=01:15:06.13 bitrate=10831.7kbits/s speed=39.2x    
  447. frame=108131 fps=936 q=-1.0 size= 5967873kB time=01:15:09.84 bitrate=10840.5kbits/s speed=  39x    
  448. frame=108292 fps=933 q=-1.0 size= 5982721kB time=01:15:16.56 bitrate=10851.3kbits/s speed=38.9x    
  449. frame=108425 fps=929 q=-1.0 size= 5995521kB time=01:15:22.11 bitrate=10861.1kbits/s speed=38.8x    
  450. frame=108486 fps=926 q=-1.0 size= 6000385kB time=01:15:24.66 bitrate=10863.8kbits/s speed=38.6x    
  451. frame=108724 fps=924 q=-1.0 size= 6019841kB time=01:15:34.58 bitrate=10875.2kbits/s speed=38.5x    
  452. frame=109899 fps=930 q=-1.0 size= 6083329kB time=01:16:23.59 bitrate=10872.4kbits/s speed=38.8x    
  453. frame=111584 fps=940 q=-1.0 size= 6134273kB time=01:17:33.85 bitrate=10797.9kbits/s speed=39.2x    
  454. frame=112792 fps=946 q=-1.0 size= 6185217kB time=01:18:24.28 bitrate=10770.9kbits/s speed=39.5x    
  455. frame=113839 fps=951 q=-1.0 size= 6231553kB time=01:19:07.92 bitrate=10751.8kbits/s speed=39.7x    
  456. frame=114539 fps=953 q=-1.0 size= 6289665kB time=01:19:37.10 bitrate=10785.8kbits/s speed=39.8x    
  457. frame=115285 fps=955 q=-1.0 size= 6338561kB time=01:20:08.23 bitrate=10799.3kbits/s speed=39.8x    
  458. frame=116422 fps=961 q=-1.0 size= 6391809kB time=01:20:55.67 bitrate=10783.6kbits/s speed=40.1x    
  459. frame=117602 fps=967 q=-1.0 size= 6443777kB time=01:21:44.85 bitrate=10762.3kbits/s speed=40.3x    
  460. frame=118350 fps=968 q=-1.0 size= 6487041kB time=01:22:16.06 bitrate=10766.0kbits/s speed=40.4x    
  461. frame=119042 fps=970 q=-1.0 size= 6534145kB time=01:22:44.91 bitrate=10781.2kbits/s speed=40.5x    
  462. frame=119862 fps=973 q=-1.0 size= 6591489kB time=01:23:19.12 bitrate=10801.4kbits/s speed=40.6x    
  463. frame=121714 fps=984 q=-1.0 size= 6657025kB time=01:24:36.37 bitrate=10742.8kbits/s speed=  41x    
  464. frame=122471 fps=986 q=-1.0 size= 6671873kB time=01:25:07.96 bitrate=10700.2kbits/s speed=41.1x    
  465. frame=124365 fps=997 q=-1.0 size= 6709505kB time=01:26:26.93 bitrate=10596.7kbits/s speed=41.6x    
  466. frame=125558 fps=1003 q=-1.0 size= 6735361kB time=01:27:16.69 bitrate=10536.4kbits/s speed=41.8x    
  467. frame=126054 fps=1002 q=-1.0 size= 6746881kB time=01:27:37.38 bitrate=10512.9kbits/s speed=41.8x    
  468. frame=127431 fps=1009 q=-1.0 size= 6779649kB time=01:28:34.81 bitrate=10449.8kbits/s speed=42.1x    
  469. frame=127720 fps=1007 q=-1.0 size= 6783233kB time=01:28:46.86 bitrate=10431.7kbits/s speed=  42x    
  470. frame=127969 fps=1005 q=-1.0 size= 6786561kB time=01:28:57.25 bitrate=10416.5kbits/s speed=41.9x    
  471. frame=128507 fps=1005 q=-1.0 size= 6793217kB time=01:29:19.72 bitrate=10383.0kbits/s speed=41.9x    
  472. [mp4 @ 0x558cdfba2000] Unknown hldr_type for text, writing dummy values
  473. frame=128880 fps=1006 q=-1.0 Lsize= 6805096kB time=01:29:35.38 bitrate=10370.9kbits/s speed=  42x    
  474. video:6000251kB audio:797914kB subtitle:0kB other streams:1kB global headers:0kB muxing overhead: 0.101944%
RAW Paste Data
We use cookies for various purposes including analytics. By continuing to use Pastebin, you agree to our use of cookies as described in the Cookies Policy. OK, I Understand
Top