Henry_Kr

JLWW2-2021

May 15th, 2021
34
Never
Not a member of Pastebin yet? Sign Up, it unlocks many cool features!
  1. Video
  2. ID : 1
  3. Format : AVC
  4. Format/Info : Advanced Video Codec
  5. Format profile : High@L4
  6. Format settings : CABAC / 4 Ref Frames
  7. Format settings, CABAC : Yes
  8. Format settings, Reference : 4 frames
  9. Muxing mode : Header stripping
  10. Codec ID : V_MPEG4/ISO/AVC
  11. Duration : 1 h 24 min
  12. Bit rate : 6 355 kb/s
  13. Width : 1 920 pixels
  14. Height : 1 080 pixels
  15. Display aspect ratio : 16:9
  16. Frame rate mode : Constant
  17. Frame rate : 23.976 (24000/1001) FPS
  18. Color space : YUV
  19. Chroma subsampling : 4:2:0
  20. Bit depth : 8 bits
  21. Scan type : Progressive
  22. Bits/(Pixel*Frame) : 0.128
  23. Stream size : 3.74 GiB (87%)
  24. Title : Justice.Society.World.War.II.2021.1080p.BluRay.[CartoonNOW]
  25. Language : English
  26. Default : Yes
  27. Forced : No
  28. Color range : Limited
  29. Color primaries : BT.709
  30. Transfer characteristics : BT.709
  31. Matrix coefficients : BT.709
  32.  
  33. Audio #1
  34. ID : 2
  35. Format : AC-3
  36. Format/Info : Audio Coding 3
  37. Commercial name : Dolby Digital
  38. Muxing mode : Header stripping
  39. Codec ID : A_AC3
  40. Duration : 1 h 24 min
  41. Bit rate mode : Constant
  42. Bit rate : 384 kb/s
  43. Channel(s) : 6 channels
  44. Channel layout : L R C LFE Ls Rs
  45. Sampling rate : 48.0 kHz
  46. Frame rate : 31.250 FPS (1536 SPF)
  47. Compression mode : Lossy
  48. Stream size : 232 MiB (5%)
  49. Title : AC3 5.1
  50. Language : Portuguese
  51. Service kind : Complete Main
  52. Default : Yes
  53. Forced : No
  54.  
  55. Audio #2
  56. ID : 3
  57. Format : AC-3
  58. Format/Info : Audio Coding 3
  59. Commercial name : Dolby Digital
  60. Muxing mode : Header stripping
  61. Codec ID : A_AC3
  62. Duration : 1 h 24 min
  63. Bit rate mode : Constant
  64. Bit rate : 384 kb/s
  65. Channel(s) : 6 channels
  66. Channel layout : L R C LFE Ls Rs
  67. Sampling rate : 48.0 kHz
  68. Frame rate : 31.250 FPS (1536 SPF)
  69. Compression mode : Lossy
  70. Stream size : 232 MiB (5%)
  71. Title : AC3 5.1
  72. Language : English
  73. Service kind : Complete Main
  74. Default : No
  75. Forced : No
  76.  
  77. Text #1
  78. ID : 4
  79. Format : UTF-8
  80. Codec ID : S_TEXT/UTF8
  81. Codec ID/Info : UTF-8 Plain Text
  82. Title : Forçada
  83. Language : Portuguese
  84. Default : No
  85. Forced : Yes
  86.  
  87. Text #2
  88. ID : 5
  89. Format : UTF-8
  90. Codec ID : S_TEXT/UTF8
  91. Codec ID/Info : UTF-8 Plain Text
  92. Title : Completa
  93. Language : Portuguese
  94. Default : No
  95. Forced : No
  96.  
  97. Menu
  98. 00:00:00.000 : en:Chapter 01
  99. 00:06:14.541 : en:Chapter 02
  100. 00:09:28.443 : en:Chapter 03
  101. 00:14:57.397 : en:Chapter 04
  102. 00:20:29.813 : en:Chapter 05
  103. 00:25:29.654 : en:Chapter 06
  104. 00:30:53.186 : en:Chapter 07
  105. 00:36:47.540 : en:Chapter 08
  106. 00:42:16.077 : en:Chapter 09
  107. 00:46:27.871 : en:Chapter 10
  108. 00:50:14.097 : en:Chapter 11
  109. 00:57:46.049 : en:Chapter 12
  110. 01:05:37.479 : en:Chapter 13
  111. 01:09:41.848 : en:Chapter 14
  112. 01:14:29.969 : en:Chapter 15
  113. 01:20:21.946 : en:Chapter 16
  114.  
  115.  
RAW Paste Data