SHARE
TWEET

The Aftermath BluRay 720p

dirtyharrys Jun 12th, 2019 (edited) 102 Never
Not a member of Pastebin yet? Sign Up, it unlocks many cool features!
  1. General
  2. Unique ID                   : 243568261726439004835047830168170853786 (0xB73D8A76DBA7FB67F7B232C7940AF59A)
  3. Complete name               : E:\QlJSVGhlQWZ0ZXJtYXRo.mkv
  4. Format                      : Matroska
  5. Format version              : Version 4
  6. File size                   : 1.83 GiB
  7. Duration                    : 1 h 48 min
  8. Overall bit rate            : 2 406 kb/s
  9. Movie name                  : The Aftermath BR-RIP / The Aftermath BR-RIP
  10. Encoded date                : UTC 2019-07-06 08:32:21
  11. Writing application         : mkvmerge v30.1.0 ('Forever And More') 32-bit
  12. Writing library             : libebml v1.3.6 + libmatroska v1.4.9
  13. Copyright                   : Movies HDs 2019
  14. ARTIST                      : HarshLearner
  15.  
  16. Video
  17. ID                          : 1
  18. Format                      : AVC
  19. Format/Info                 : Advanced Video Codec
  20. Format profile              : High@L4.1
  21. Format settings             : CABAC / 4 Ref Frames
  22. Format settings, CABAC      : Yes
  23. Format settings, ReFrames   : 4 frames
  24. Codec ID                    : V_MPEG4/ISO/AVC
  25. Duration                    : 1 h 48 min
  26. Bit rate                    : 1 500 kb/s
  27. Width                       : 1 280 pixels
  28. Height                      : 688 pixels
  29. Display aspect ratio        : 1.85:1
  30. Frame rate mode             : Constant
  31. Frame rate                  : 23.976 (23976/1000) FPS
  32. Color space                 : YUV
  33. Chroma subsampling          : 4:2:0
  34. Bit depth                   : 8 bits
  35. Scan type                   : Progressive
  36. Bits/(Pixel*Frame)          : 0.071
  37. Stream size                 : 1.14 GiB (62%)
  38. Writing library             : x264 core 152 r2851M ba24899
  39. Default                     : Yes
  40. Forced                      : No
  41.  
  42. Audio #1
  43. ID                          : 2
  44. Format                      : AC-3
  45. Format/Info                 : Audio Coding 3
  46. Commercial name             : Dolby Digital
  47. Codec ID                    : A_AC3
  48. Duration                    : 1 h 48 min
  49. Bit rate mode               : Constant
  50. Bit rate                    : 448 kb/s
  51. Channel(s)                  : 6 channels
  52. Channel layout              : L R C LFE Ls Rs
  53. Sampling rate               : 48.0 kHz
  54. Frame rate                  : 31.250 FPS (1536 SPF)
  55. Bit depth                   : 16 bits
  56. Compression mode            : Lossy
  57. Stream size                 : 348 MiB (19%)
  58. Language                    : English
  59. Service kind                : Complete Main
  60. Default                     : No
  61. Forced                      : No
  62.  
  63. Audio #2
  64. ID                          : 3
  65. Format                      : AC-3
  66. Format/Info                 : Audio Coding 3
  67. Commercial name             : Dolby Digital
  68. Codec ID                    : A_AC3
  69. Duration                    : 1 h 48 min
  70. Bit rate mode               : Constant
  71. Bit rate                    : 448 kb/s
  72. Channel(s)                  : 6 channels
  73. Channel layout              : L R C LFE Ls Rs
  74. Sampling rate               : 48.0 kHz
  75. Frame rate                  : 31.250 FPS (1536 SPF)
  76. Bit depth                   : 16 bits
  77. Compression mode            : Lossy
  78. Stream size                 : 348 MiB (19%)
  79. Language                    : Spanish
  80. Service kind                : Complete Main
  81. Default                     : Yes
  82. Forced                      : Yes
  83.  
  84. Text #1
  85. ID                          : 4
  86. Format                      : PGS
  87. Muxing mode                 : zlib
  88. Codec ID                    : S_HDMV/PGS
  89. Codec ID/Info               : Picture based subtitle format used on BDs/HD-DVDs
  90. Duration                    : 1 h 47 min
  91. Bit rate                    : 17.1 kb/s
  92. Count of elements           : 1600
  93. Stream size                 : 13.2 MiB (1%)
  94. Language                    : Spanish
  95. Default                     : No
  96. Forced                      : No
  97.  
  98. Text #2
  99. ID                          : 5
  100. Format                      : PGS
  101. Muxing mode                 : zlib
  102. Codec ID                    : S_HDMV/PGS
  103. Codec ID/Info               : Picture based subtitle format used on BDs/HD-DVDs
  104. Duration                    : 1 h 35 min
  105. Bit rate                    : 1 256 b/s
  106. Count of elements           : 124
  107. Stream size                 : 876 KiB (0%)
  108. Language                    : Spanish
  109. Default                     : No
  110. Forced                      : No
  111.  
  112. Text #3
  113. ID                          : 6
  114. Format                      : UTF-8
  115. Codec ID                    : S_TEXT/UTF8
  116. Codec ID/Info               : UTF-8 Plain Text
  117. Duration                    : 1 h 39 min
  118. Bit rate                    : 32 b/s
  119. Count of elements           : 962
  120. Stream size                 : 23.7 KiB (0%)
  121. Language                    : English
  122. Default                     : No
  123. Forced                      : No
  124.  
  125. Text #4
  126. ID                          : 7
  127. Format                      : UTF-8
  128. Codec ID                    : S_TEXT/UTF8
  129. Codec ID/Info               : UTF-8 Plain Text
  130. Duration                    : 1 h 43 min
  131. Bit rate                    : 29 b/s
  132. Count of elements           : 799
  133. Stream size                 : 22.2 KiB (0%)
  134. Language                    : Spanish
  135. Default                     : Yes
  136. Forced                      : Yes
  137.  
  138. Text #5
  139. ID                          : 8
  140. Format                      : UTF-8
  141. Codec ID                    : S_TEXT/UTF8
  142. Codec ID/Info               : UTF-8 Plain Text
  143. Duration                    : 1 h 18 min
  144. Bit rate                    : 2 b/s
  145. Count of elements           : 61
  146. Stream size                 : 1.34 KiB (0%)
  147. Language                    : Spanish
  148. Default                     : No
  149. Forced                      : No
  150.  
  151. Menu
  152. 00:00:00.000                : :Chapter 01
  153. 00:04:00.198                : :Chapter 02
  154. 00:10:37.386                : :Chapter 03
  155. 00:14:21.151                : :Chapter 04
  156. 00:17:51.779                : :Chapter 05
  157. 00:22:40.525                : :Chapter 06
  158. 00:27:50.877                : :Chapter 07
  159. 00:35:09.524                : :Chapter 08
  160. 00:37:11.020                : :Chapter 09
  161. 00:41:33.073                : :Chapter 10
  162. 00:46:29.077                : :Chapter 11
  163. 00:49:59.871                : :Chapter 12
  164. 00:56:03.693                : :Chapter 13
  165. 01:02:05.680                : :Chapter 14
  166. 01:04:49.635                : :Chapter 15
  167. 01:09:01.262                : :Chapter 16
  168. 01:15:59.304                : :Chapter 17
  169. 01:19:48.033                : :Chapter 18
  170. 01:22:09.049                : :Chapter 19
  171. 01:27:01.507                : :Chapter 20
  172. 01:29:36.788                : :Chapter 21
  173. 01:33:39.614                : :Chapter 22
  174. 01:39:16.033                : :Chapter 23
  175. 01:42:47.870                : :Chapter 24
RAW Paste Data
We use cookies for various purposes including analytics. By continuing to use Pastebin, you agree to our use of cookies as described in the Cookies Policy. OK, I Understand
 
Top