Advertisement
johnowenemmet

Пространство / Экспансия / The Expanse (2017)

Feb 10th, 2024
32
0
Never
Not a member of Pastebin yet? Sign Up, it unlocks many cool features!
text 10.04 KB | None | 0 0
  1. x265 [info]: frame I: 268, Avg QP:17.71 kb/s: 17558.16
  2. x265 [info]: frame P: 10773, Avg QP:18.90 kb/s: 9341.86
  3. x265 [info]: frame B: 51916, Avg QP:21.25 kb/s: 2875.79
  4. x265 [info]: Weighted P-Frames: Y:5.7% UV:4.6%
  5. x265 [info]: Weighted B-Frames: Y:5.8% UV:4.3%
  6. x265 [info]: consecutive B-frames: 2.0% 2.6% 10.2% 24.0% 11.6% 22.3% 6.2% 8.3% 3.5% 3.5% 2.4% 1.8% 0.7% 0.8%
  7. x265 [info]: encoded 62957 frames in 48196.66s (1.31 fps), 4044.74 kb/s, Avg QP:20.84
  8.  
  9. Общее
  10. Уникальный идентификатор : 334232224930785573926058652776303925945 (0xFB72C8F834F889F572D7A8F3F1879AB9)
  11. Полное имя : \\.\The.Expanse.S02E04.Godspeed.mkv
  12. Формат : Matroska
  13. Версия формата : Version 4
  14. Размер файла : 1,75 Гбайт
  15. Продолжительность : 43 м. 45 с.
  16. Общий поток : 5 714 Кбит/сек
  17. Частота кадров : 23,976 кадра/сек
  18. Название фильма : The.Expanse.S02E04.Godspeed / В добрый путь
  19. Трек/Положение : 2
  20. Кодирование произвёл : OldGamer
  21. Тип содержимого : TV Show
  22. Описание : Крисьен Авасарала и Садавир Эрринграйт устраивают допрос Жюлю-Пьеру Мао. По приказу Джонсона гигантскому кораблю «Нову» задают новый курс. Миллер вместе с напарником готовится выйти в открытый космос.
  23. Дата выпуска : 2017-02-15
  24. Дата записи : 2017-02-15
  25. Программа кодирования : mkvmerge v82.0 ('I'm The President') 64-bit
  26. Библиотека кодирования : libebml v1.4.5 + libmatroska v1.7.1 / xvid5psp
  27. Обложка : Yes
  28. Attachments : cover.jpg
  29. ACTOR : Steven Strait, Dominique Tipper, Cas Anvar, Wes Chatham, Shohreh Aghdashloo, Frankie Adams, Thomas Jane, Florence Faivre, Shawn Doyle, Cara Gee, Bruno Verdoni, Alex Woods, Jeff Clarke, Alden Adair, Nick E. Tarabay, François Chau, Andrew Rotilio, Chad...
  30. ARTIST : Steven Strait, Dominique Tipper, Cas Anvar, Wes Chatham, Shohreh Aghdashloo, Frankie Adams, Thomas Jane, Florence Faivre, Shawn Doyle, Cara Gee, Bruno Verdoni, Alex Woods, Jeff Clarke, Alden Adair, Nick E. Tarabay, François Chau, Andrew Rotilio, Chad...
  31. DIRECTOR : Jeff Woolnough
  32. EPISODE.PART_NUM : 4
  33. GENRE : драма, детектив, НФ и Фэнтези
  34. LAW_RATING : TV-14
  35. RATING : TV-14
  36. SCREENPLAY_BY : Dan Nowak
  37. SEASON.PART_NUM : 2
  38. SUMMARY : Крисьен Авасарала и Садавир Эрринграйт устраивают допрос Жюлю-Пьеру Мао. По приказу Джонсона гигантскому кораблю «Нову» задают новый курс. Миллер вместе с напарником готовится выйти в открытый космос.
  39. SYNOPSIS : Крисьен Авасарала и Садавир Эрринграйт устраивают допрос Жюлю-Пьеру Мао. По приказу Джонсона гигантскому кораблю «Нову» задают новый курс. Миллер вместе с напарником готовится выйти в открытый космос. Холдер и его команда обнаруживают у станции Эрос корабль, экипажу которого угрожает опасность заражения протомолекулой.
  40. WRITTEN_BY : Dan Nowak
  41.  
  42. Видео
  43. Идентификатор : 1
  44. Формат : HEVC
  45. Формат/Информация : High Efficiency Video Coding
  46. Профиль формата : Main 10@L4.1@High
  47. Идентификатор кодека : V_MPEGH/ISO/HEVC
  48. Продолжительность : 43 м. 45 с.
  49. Битрейт : 4 046 Кбит/сек
  50. Ширина : 1 920 пикселей
  51. Высота : 1 080 пикселей
  52. Соотношение сторон : 16:9
  53. Режим частоты кадров : Постоянный
  54. Частота кадров : 23,976 (24000/1001) кадра/сек
  55. Цветовое пространство : YUV
  56. Субдискретизация насыщенности : 4:2:0
  57. Битовая глубина : 10 бит
  58. Бит/(Пиксели*Кадры) : 0.081
  59. Размер потока : 1,24 Гбайт (71%)
  60. Заголовок : The Expanse S02E04 / Rip by OldGamer
  61. Библиотека кодирования : x265 3.2.1+3-b4b2ecac21f6:[Windows][MSVC 1924][64 bit] 10bit
  62. Настройки программы : cpuid=1111039 / frame-threads=4 / numa-pools=16 / wpp / no-pmode / no-pme / no-psnr / no-ssim / log-level=2 / input-csp=1 / input-res=1920x1080 / interlace=0 / total-frames=62957 / level-idc=41 / high-tier=1 / uhd-bd=0 / ref=5 / no-allow-non-conformance / no-repeat-headers / annexb / no-aud / no-hrd / info / hash=0 / no-temporal-layers / open-gop / min-keyint=23 / keyint=240 / gop-lookahead=0 / bframes=13 / b-adapt=2 / b-pyramid / bframe-bias=0 / rc-lookahead=80 / lookahead-slices=0 / scenecut=40 / radl=0 / no-splice / no-intra-refresh / ctu=64 / min-cu-size=8 / rect / amp / max-tu-size=32 / tu-inter-depth=4 / tu-intra-depth=4 / limit-tu=1 / rdoq-level=2 / dynamic-rd=0.00 / no-ssim-rd / signhide / no-tskip / nr-intra=0 / nr-inter=0 / no-constrained-intra / no-strong-intra-smoothing / max-merge=5 / limit-refs=3 / no-limit-modes / me=3 / subme=7 / merange=57 / temporal-mvp / no-hme / weightp / weightb / no-analyze-src-pics / deblock=-3:-3 / no-sao / no-sao-non-deblock / rd=6 / selective-sao=0 / no-early-skip / rskip / no-fast-intra / no-tskip-fast / no-cu-lossless / b-intra / no-splitrd-skip / rdpenalty=0 / psy-rd=2.00 / psy-rdoq=1.00 / no-rd-refine / no-lossless / cbqpoffs=0 / crqpoffs=0 / rc=crf / crf=20.5 / qcomp=0.60 / qpstep=4 / stats-write=0 / stats-read=0 / vbv-maxrate=50000 / vbv-bufsize=50000 / vbv-init=0.9 / crf-max=0.0 / crf-min=0.0 / ipratio=1.40 / pbratio=1.30 / aq-mode=4 / aq-strength=0.80 / no-cutree / zone-count=0 / no-strict-cbr / qg-size=32 / no-rc-grain / qpmax=69 / qpmin=0 / no-const-vbv / sar=1 / overscan=0 / videoformat=5 / range=0 / colorprim=2 / transfer=2 / colormatrix=2 / chromaloc=0 / display-window=0 / cll=0,0 / min-luma=0 / max-luma=1023 / log2-max-poc-lsb=8 / vui-timing-info / vui-hrd-info / slices=1 / no-opt-qp-pps / no-opt-ref-list-length-pps / no-multi-pass-opt-rps / scenecut-bias=0.00 / no-opt-cu-delta-qp / no-aq-motion / no-hdr / no-hdr-opt / no-dhdr10-opt / no-idr-recovery-sei / analysis-reuse-level=5 / scale-factor=0 / refine-intra=0 / refine-inter=0 / refine-mv=1 / refine-ctu-distortion=0 / no-limit-sao / ctu-info=0 / no-lowpass-dct / refine-analysis-type=0 / copy-pic=1 / max-ausize-factor=1.0 / no-dynamic-refine / no-single-sei / no-hevc-aq / no-svt / no-field / qp-adaptation-range=1.00
  63. Язык : English
  64. Default : Да
  65. Forced : Нет
  66.  
  67. Аудио #1
  68. Идентификатор : 2
  69. Формат : AC-3
  70. Формат/Информация : Audio Coding 3
  71. Коммерческое название : Dolby Digital
  72. Идентификатор кодека : A_AC3
  73. Продолжительность : 43 м. 45 с.
  74. Вид битрейта : Постоянный
  75. Битрейт : 640 Кбит/сек
  76. Каналы : 6 каналов
  77. Channel layout : L R C LFE Ls Rs
  78. Частота : 48,0 КГц
  79. Частота кадров : 31,250 кадров/сек (1536 SPF)
  80. Метод сжатия : С потерями
  81. Размер потока : 200 Мбайт (11%)
  82. Заголовок : MVO (LostFilm)
  83. Язык : Russian
  84. Service kind : Complete Main
  85. Default : Да
  86. Forced : Нет
  87.  
  88. Аудио #2
  89. Идентификатор : 3
  90. Формат : AC-3
  91. Формат/Информация : Audio Coding 3
  92. Коммерческое название : Dolby Digital
  93. Идентификатор кодека : A_AC3
  94. Продолжительность : 43 м. 45 с.
  95. Вид битрейта : Постоянный
  96. Битрейт : 384 Кбит/сек
  97. Каналы : 6 каналов
  98. Channel layout : L R C LFE Ls Rs
  99. Частота : 48,0 КГц
  100. Частота кадров : 31,250 кадров/сек (1536 SPF)
  101. Метод сжатия : С потерями
  102. Размер потока : 120 Мбайт (7%)
  103. Заголовок : MVO (AlexFilm)
  104. Язык : Russian
  105. Service kind : Complete Main
  106. Default : Нет
  107. Forced : Нет
  108.  
  109. Аудио #3
  110. Идентификатор : 4
  111. Формат : AC-3
  112. Формат/Информация : Audio Coding 3
  113. Коммерческое название : Dolby Digital
  114. Идентификатор кодека : A_AC3
  115. Продолжительность : 43 м. 45 с.
  116. Вид битрейта : Постоянный
  117. Битрейт : 640 Кбит/сек
  118. Каналы : 6 каналов
  119. Channel layout : L R C LFE Ls Rs
  120. Частота : 48,0 КГц
  121. Частота кадров : 31,250 кадров/сек (1536 SPF)
  122. Метод сжатия : С потерями
  123. Размер потока : 200 Мбайт (11%)
  124. Заголовок : Original
  125. Язык : English
  126. Service kind : Complete Main
  127. Default : Нет
  128. Forced : Нет
  129.  
  130. Текст #1
  131. Идентификатор : 5
  132. Формат : UTF-8
  133. Идентификатор кодека : S_TEXT/UTF8
  134. Идентификатор кодека/Информация : UTF-8 Plain Text
  135. Продолжительность : 42 м. 36 с.
  136. Битрейт : 124 бит/сек
  137. Частота кадров : 0,264 кадр/сек
  138. Count of elements : 675
  139. Размер потока : 38,8 Кбайт (0%)
  140. Язык : Russian
  141. Default : Нет
  142. Forced : Нет
  143.  
  144. Текст #2
  145. Идентификатор : 6
  146. Формат : UTF-8
  147. Идентификатор кодека : S_TEXT/UTF8
  148. Идентификатор кодека/Информация : UTF-8 Plain Text
  149. Продолжительность : 42 м. 22 с.
  150. Битрейт : 80 бит/сек
  151. Частота кадров : 0,317 кадр/сек
  152. Count of elements : 806
  153. Размер потока : 25,0 Кбайт (0%)
  154. Язык : English
  155. Default : Нет
  156. Forced : Нет
  157.  
  158. Меню
  159. 00:00:00.000 : en:Chapter 1
  160. 00:02:05.042 : en:Chapter 2
  161. 00:18:55.634 : en:Chapter 3
  162. 00:31:16.541 : en:Chapter 4
Advertisement
Add Comment
Please, Sign In to add comment
Advertisement