GrabHD

Untitled

Apr 13th, 2020
10
Never
Not a member of Pastebin yet? Sign Up, it unlocks many cool features!
  1. General
  2. Unique ID : 133707043656847562862840377786038602814 (0x64970A37E5A5949C1C7CF50622EDCC3E)
  3. Complete name : E:Video111Sonic.the.Hedgehog.2020.AMZN.WEB-DL.720p.seleZen.mkv
  4. Format : Matroska
  5. Format version : Version 4
  6. File size : 3.17 GiB
  7. Duration : 1 h 38 min
  8. Overall bit rate : 4 587 kb/s
  9. Movie name : Sonic the Hedgehog 2020 from селезень
  10. Encoded date : UTC 2020-04-13 18:24:39
  11. Writing application : mkvmerge v40.0.0 ('Old Town Road + Pony') 64-bit
  12. Writing library : libebml v1.3.9 + libmatroska v1.5.2
  13.  
  14. Video
  15. ID : 1
  16. Format : AVC
  17. Format/Info : Advanced Video Codec
  18. Format profile : High@L3.1
  19. Format settings : CABAC / 4 Ref Frames
  20. Format settings, CABAC : Yes
  21. Format settings, Reference : 4 frames
  22. Codec ID : V_MPEG4/ISO/AVC
  23. Duration : 1 h 38 min
  24. Bit rate mode : Constant
  25. Bit rate : 3 368 kb/s
  26. Nominal bit rate : 6 000 kb/s
  27. Width : 1 248 pixels
  28. Height : 520 pixels
  29. Display aspect ratio : 2.40:1
  30. Frame rate mode : Constant
  31. Frame rate : 23.976 (24000/1001) FPS
  32. Color space : YUV
  33. Chroma subsampling : 4:2:0
  34. Bit depth : 8 bits
  35. Scan type : Progressive
  36. Bits/(Pixel*Frame) : 0.216
  37. Stream size : 2.33 GiB (73%)
  38. Language : English
  39. Default : Yes
  40. Forced : No
  41. Color range : Limited
  42. Color primaries : BT.709
  43. Transfer characteristics : BT.709
  44. Matrix coefficients : BT.709
  45.  
  46. Audio #1
  47. ID : 2
  48. Format : AC-3
  49. Format/Info : Audio Coding 3
  50. Commercial name : Dolby Digital
  51. Codec ID : A_AC3
  52. Duration : 1 h 38 min
  53. Bit rate mode : Constant
  54. Bit rate : 384 kb/s
  55. Channel(s) : 6 channels
  56. Channel layout : L R C LFE Ls Rs
  57. Sampling rate : 48.0 kHz
  58. Frame rate : 31.250 FPS (1536 SPF)
  59. Compression mode : Lossy
  60. Stream size : 272 MiB (8%)
  61. Title : iTunes
  62. Language : Russian
  63. Service kind : Complete Main
  64. Default : Yes
  65. Forced : Yes
  66.  
  67. Audio #2
  68. ID : 3
  69. Format : AC-3
  70. Format/Info : Audio Coding 3
  71. Commercial name : Dolby Digital
  72. Codec ID : A_AC3
  73. Duration : 1 h 38 min
  74. Bit rate mode : Constant
  75. Bit rate : 192 kb/s
  76. Channel(s) : 2 channels
  77. Channel layout : L R
  78. Sampling rate : 48.0 kHz
  79. Frame rate : 31.250 FPS (1536 SPF)
  80. Compression mode : Lossy
  81. Stream size : 136 MiB (4%)
  82. Title : iTunes
  83. Language : Ukrainian
  84. Service kind : Complete Main
  85. Default : No
  86. Forced : No
  87.  
  88. Audio #3
  89. ID : 4
  90. Format : E-AC-3
  91. Format/Info : Enhanced AC-3
  92. Commercial name : Dolby Digital Plus
  93. Codec ID : A_EAC3
  94. Duration : 1 h 38 min
  95. Bit rate mode : Constant
  96. Bit rate : 640 kb/s
  97. Channel(s) : 6 channels
  98. Channel layout : L R C LFE Ls Rs
  99. Sampling rate : 48.0 kHz
  100. Frame rate : 31.250 FPS (1536 SPF)
  101. Compression mode : Lossy
  102. Stream size : 453 MiB (14%)
  103. Title : Original
  104. Language : English
  105. Service kind : Complete Main
  106. Default : No
  107. Forced : No
  108.  
  109. Text #1
  110. ID : 5
  111. Format : UTF-8
  112. Codec ID : S_TEXT/UTF8
  113. Codec ID/Info : UTF-8 Plain Text
  114. Duration : 1 h 35 min
  115. Bit rate : 1 b/s
  116. Count of elements : 25
  117. Stream size : 992 Bytes (0%)
  118. Title : Forced
  119. Language : Russian
  120. Default : Yes
  121. Forced : Yes
  122.  
  123. Text #2
  124. ID : 6
  125. Format : UTF-8
  126. Codec ID : S_TEXT/UTF8
  127. Codec ID/Info : UTF-8 Plain Text
  128. Duration : 1 h 37 min
  129. Bit rate : 92 b/s
  130. Count of elements : 1294
  131. Stream size : 66.0 KiB (0%)
  132. Title : Full
  133. Language : Russian
  134. Default : No
  135. Forced : No
  136.  
  137. Text #3
  138. ID : 7
  139. Format : UTF-8
  140. Codec ID : S_TEXT/UTF8
  141. Codec ID/Info : UTF-8 Plain Text
  142. Duration : 1 h 35 min
  143. Bit rate : 1 b/s
  144. Count of elements : 29
  145. Stream size : 1.12 KiB (0%)
  146. Title : Forced
  147. Language : Ukrainian
  148. Default : No
  149. Forced : No
  150.  
  151. Text #4
  152. ID : 8
  153. Format : UTF-8
  154. Codec ID : S_TEXT/UTF8
  155. Codec ID/Info : UTF-8 Plain Text
  156. Duration : 1 h 37 min
  157. Bit rate : 89 b/s
  158. Count of elements : 1313
  159. Stream size : 64.0 KiB (0%)
  160. Title : Full
  161. Language : Ukrainian
  162. Default : No
  163. Forced : No
  164.  
  165. Text #5
  166. ID : 9
  167. Format : UTF-8
  168. Codec ID : S_TEXT/UTF8
  169. Codec ID/Info : UTF-8 Plain Text
  170. Duration : 1 h 31 min
  171. Bit rate : 66 b/s
  172. Count of elements : 1415
  173. Stream size : 44.3 KiB (0%)
  174. Title : Full
  175. Language : English
  176. Default : No
  177. Forced : No
  178.  
  179. Text #6
  180. ID : 10
  181. Format : UTF-8
  182. Codec ID : S_TEXT/UTF8
  183. Codec ID/Info : UTF-8 Plain Text
  184. Duration : 1 h 32 min
  185. Bit rate : 73 b/s
  186. Count of elements : 1661
  187. Stream size : 49.6 KiB (0%)
  188. Title : SDH
  189. Language : English
  190. Default : No
  191. Forced : No
  192.  
  193. Menu
  194. 00:00:00.000 : en:Studio Logo
  195. 00:00:51.000 : en:Scene 2
  196. 00:01:30.000 : en:Scene 3
  197. 00:03:43.000 : en:Title Sequence
  198. 00:03:51.000 : en:Scene 5
  199. 00:09:34.000 : en:Scene 6
  200. 00:17:02.000 : en:Scene 7
  201. 00:22:20.000 : en:Scene 8
  202. 00:31:35.000 : en:Scene 9
  203. 00:35:09.000 : en:Scene 10
  204. 00:38:29.000 : en:Scene 11
  205. 00:48:40.000 : en:Scene 12
  206. 00:59:41.000 : en:Scene 13
  207. 01:04:37.000 : en:Scene 14
  208. 01:12:43.000 : en:Scene 15
  209. 01:20:15.000 : en:Scene 16
  210. 01:25:41.000 : en:Scene 17
  211. 01:29:03.000 : en:Scene 18
  212. 01:30:27.000 : en:End Credits
  213. 01:32:05.000 : en:Scene 20
  214. 01:32:45.000 : en:End Credits
RAW Paste Data