GrabHD

Untitled

Mar 17th, 2020
109
Never
Not a member of Pastebin yet? Sign Up, it unlocks many cool features!
  1. General
  2. Unique ID : 182618265008839558014998522713604256873 (0x8962FF9D84270BA59896FDEEABC27469)
  3. Complete name : Star.Wars.Episode.IX.The.Rise.of.Skywalker.(2019).BDRip.1080p.mkv
  4. Format : Matroska
  5. Format version : Version 4
  6. File size : 16.1 GiB
  7. Duration : 2 h 21 min
  8. Overall bit rate : 16.2 Mb/s
  9. Encoded date : UTC 2020-03-17 12:06:04
  10. Writing application : mkvmerge v8.3.0 ('Over the Horizon') 64bit
  11. Writing library : libebml v1.3.1 + libmatroska v1.4.2
  12.  
  13. Video
  14. ID : 1
  15. Format : AVC
  16. Format/Info : Advanced Video Codec
  17. Format profile : High@L4.1
  18. Format settings : CABAC / 4 Ref Frames
  19. Format settings, CABAC : Yes
  20. Format settings, ReFrames : 4 frames
  21. Codec ID : V_MPEG4/ISO/AVC
  22. Duration : 2 h 21 min
  23. Bit rate : 14.5 Mb/s
  24. Width : 1 920 pixels
  25. Height : 804 pixels
  26. Display aspect ratio : 2.40:1
  27. Frame rate mode : Constant
  28. Frame rate : 23.976 (24000/1001) FPS
  29. Color space : YUV
  30. Chroma subsampling : 4:2:0
  31. Bit depth : 8 bits
  32. Scan type : Progressive
  33. Bits/(Pixel*Frame) : 0.392
  34. Stream size : 14.4 GiB (89%)
  35. Writing library : x264 core 157 r2867+150 7e91e0e t_mod_Custom_2 [8-bit@all X86_64]
  36. Encoding settings : cabac=1 / ref=4 / deblock=1:-3:-3 / analyse=0x3:0x133 / me=umh / subme=11 / psy=1 / fade_compensate=0.00 / psy_rd=0.90:0.10 / mixed_ref=1 / me_range=64 / chroma_me=1 / trellis=2 / 8x8dct=1 / cqm=0 / deadzone=21,11 / fast_pskip=0 / chroma_qp_offset=-4 / threads=25 / lookahead_threads=4 / sliced_threads=0 / nr=0 / decimate=1 / interlaced=0 / bluray_compat=0 / constrained_intra=0 / fgo=0 / bframes=8 / b_pyramid=2 / b_adapt=2 / b_bias=0 / direct=3 / weightb=1 / open_gop=0 / weightp=2 / keyint=250 / keyint_min=23 / scenecut=40 / intra_refresh=0 / rc_lookahead=60 / rc=crf / mbtree=0 / crf=18.0000 / qcomp=0.70 / qpmin=0:0:0 / qpmax=69:69:69 / qpstep=4 / vbv_maxrate=35000 / vbv_bufsize=35000 / crf_max=0.0 / nal_hrd=none / filler=0 / ip_ratio=1.40 / pb_ratio=1.30 / aq=3:1.00 / aq-sensitivity=10.00 / aq-factor=1.00:1.00:1.00 / aq2=0 / aq3=0
  37. Language : English
  38. Default : Yes
  39. Forced : No
  40.  
  41. Audio #1
  42. ID : 2
  43. Format : AC-3
  44. Format/Info : Audio Coding 3
  45. Commercial name : Dolby Digital
  46. Codec ID : A_AC3
  47. Duration : 2 h 21 min
  48. Bit rate mode : Constant
  49. Bit rate : 192 kb/s
  50. Channel(s) : 2 channels
  51. Channel layout : L R
  52. Sampling rate : 48.0 kHz
  53. Frame rate : 31.250 FPS (1536 SPF)
  54. Bit depth : 16 bits
  55. Compression mode : Lossy
  56. Stream size : 195 MiB (1%)
  57. Language : Russian
  58. Default : Yes
  59. Forced : No
  60.  
  61. Audio #2
  62. ID : 3
  63. Format : DTS
  64. Format/Info : Digital Theater Systems
  65. Codec ID : A_DTS
  66. Duration : 2 h 21 min
  67. Bit rate mode : Constant
  68. Bit rate : 1 509 kb/s
  69. Channel(s) : 6 channels
  70. Channel layout : C L R Ls Rs LFE
  71. Sampling rate : 48.0 kHz
  72. Frame rate : 93.750 FPS (512 SPF)
  73. Bit depth : 16 bits
  74. Compression mode : Lossy
  75. Stream size : 1.50 GiB (9%)
  76. Language : English
  77. Default : No
  78. Forced : No
  79.  
  80. Text #1
  81. ID : 4
  82. Format : UTF-8
  83. Codec ID : S_TEXT/UTF8
  84. Codec ID/Info : UTF-8 Plain Text
  85. Duration : 59 s 268 ms
  86. Bit rate : 129 b/s
  87. Count of elements : 9
  88. Stream size : 962 Bytes (0%)
  89. Title : Forced
  90. Language : Russian
  91. Default : Yes
  92. Forced : Yes
  93.  
  94. Text #2
  95. ID : 5
  96. Format : UTF-8
  97. Codec ID : S_TEXT/UTF8
  98. Codec ID/Info : UTF-8 Plain Text
  99. Duration : 2 h 21 min
  100. Bit rate : 58 b/s
  101. Count of elements : 1442
  102. Stream size : 60.8 KiB (0%)
  103. Title : Full
  104. Language : Russian
  105. Default : No
  106. Forced : No
  107.  
  108. Text #3
  109. ID : 6
  110. Format : UTF-8
  111. Codec ID : S_TEXT/UTF8
  112. Codec ID/Info : UTF-8 Plain Text
  113. Duration : 2 h 11 min
  114. Bit rate : 77 b/s
  115. Count of elements : 1772
  116. Stream size : 74.7 KiB (0%)
  117. Title : SDH
  118. Language : Russian
  119. Default : No
  120. Forced : No
  121.  
  122. Text #4
  123. ID : 7
  124. Format : UTF-8
  125. Codec ID : S_TEXT/UTF8
  126. Codec ID/Info : UTF-8 Plain Text
  127. Duration : 2 h 8 min
  128. Bit rate : 42 b/s
  129. Count of elements : 1531
  130. Stream size : 39.8 KiB (0%)
  131. Language : English
  132. Default : No
  133. Forced : No
  134.  
  135. Menu
  136. 00:00:00.000 : :Chapter 1
  137. 00:00:09.217 : :Chapter 2
  138. 00:03:47.435 : :Chapter 3
  139. 00:03:47.936 : :Chapter 4
  140. 00:06:42.485 : :Chapter 5
  141. 00:08:26.214 : :Chapter 6
  142. 00:10:04.896 : :Chapter 7
  143. 00:12:48.267 : :Chapter 8
  144. 00:13:54.125 : :Chapter 9
  145. 00:15:17.541 : :Chapter 10
  146. 00:17:13.282 : :Chapter 11
  147. 00:19:24.621 : :Chapter 12
  148. 00:21:28.704 : :Chapter 13
  149. 00:25:27.818 : :Chapter 14
  150. 00:27:15.008 : :Chapter 15
  151. 00:30:41.673 : :Chapter 16
  152. 00:35:49.188 : :Chapter 17
  153. 00:41:37.787 : :Chapter 18
  154. 00:43:15.384 : :Chapter 19
  155. 00:45:28.475 : :Chapter 20
  156. 00:48:24.401 : :Chapter 21
  157. 00:54:37.691 : :Chapter 22
  158. 00:58:49.317 : :Chapter 23
  159. 01:02:54.896 : :Chapter 24
  160. 01:06:23.104 : :Chapter 25
  161. 01:09:54.732 : :Chapter 26
  162. 01:13:07.508 : :Chapter 27
  163. 01:18:23.740 : :Chapter 28
  164. 01:23:41.349 : :Chapter 29
  165. 01:27:02.675 : :Chapter 30
  166. 01:30:23.251 : :Chapter 31
  167. 01:35:00.945 : :Chapter 32
  168. 01:38:48.005 : :Chapter 33
  169. 01:40:35.446 : :Chapter 34
  170. 01:43:03.260 : :Chapter 35
  171. 01:45:27.988 : :Chapter 36
  172. 01:48:47.813 : :Chapter 37
  173. 01:53:27.759 : :Chapter 38
  174. 01:55:30.882 : :Chapter 39
  175. 01:59:02.885 : :Chapter 40
  176. 02:01:37.874 : :Chapter 41
  177. 02:05:20.554 : :Chapter 42
  178. 02:09:42.358 : :Chapter 43
  179. 02:12:25.354 : :Chapter 44
RAW Paste Data