SHARE
TWEET

Initial D

a guest Jan 24th, 2019 119 Never
Not a member of Pastebin yet? Sign Up, it unlocks many cool features!
  1. General
  2. Unique ID                      : 268503820838047309995538162110801965949 (0xC9FFF47295EC5ED90966AA6AF5B8F37D)
  3. Complete name                  : [Wien-Subs] Initial D Battle Stage [DVD 480p][RAW].mkv
  4. Format                         : Matroska
  5. Format version                 : Version 4 / Version 2
  6. File size                      : 518 MiB
  7. Duration                       : 52 min 38 s
  8. Overall bit rate               : 1 375 kb/s
  9. Encoded date                   : UTC 2019-01-24 11:21:23
  10. Writing application            : mkvmerge v28.2.0 ('The Awakening') 64-bit
  11. Writing library                : libebml v1.3.6 + libmatroska v1.4.9
  12. Power by                       : Wien-Subs Studio
  13.  
  14. Video
  15. ID                             : 1
  16. Format                         : AVC
  17. Format/Info                    : Advanced Video Codec
  18. Format profile                 : High 4:4:4 Predictive@L3.2
  19. Format settings, CABAC         : Yes
  20. Format settings, RefFrames     : 12 frames
  21. Codec ID                       : V_MPEG4/ISO/AVC
  22. Duration                       : 52 min 38 s
  23. Bit rate                       : 1 143 kb/s
  24. Width                          : 640 pixels
  25. Height                         : 480 pixels
  26. Display aspect ratio           : 4:3
  27. Original display aspect ratio  : 4:3
  28. Frame rate mode                : Constant
  29. Frame rate                     : 23.976 (24000/1001) FPS
  30. Color space                    : YUV
  31. Chroma subsampling             : 4:4:4
  32. Bit depth                      : 8 bits
  33. Scan type                      : Progressive
  34. Bits/(Pixel*Frame)             : 0.155
  35. Stream size                    : 430 MiB (83%)
  36. Writing library                : x264 core 157 r2935 545de2f
  37. Encoding settings              : opencl=1 / cabac=1 / ref=12 / deblock=1:0:0 / analyse=0x1:0x131 / me=umh / subme=9 / psy=1 / psy_rd=0.80:0.15 / mixed_ref=1 / me_range=12 / chroma_me=1 / trellis=2 / 8x8dct=0 / cqm=0 / deadzone=21,11 / fast_pskip=0 / chroma_qp_offset=3 / threads=9 / lookahead_threads=1 / sliced_threads=0 / nr=0 / decimate=1 / interlaced=0 / bluray_compat=0 / constrained_intra=0 / bframes=6 / b_pyramid=2 / b_adapt=2 / b_bias=0 / direct=3 / weightb=1 / open_gop=0 / weightp=2 / keyint=250 / keyint_min=23 / scenecut=40 / intra_refresh=0 / rc_lookahead=60 / rc=crf / mbtree=1 / crf=16.0 / qcomp=0.55 / qpmin=0 / qpmax=69 / qpstep=4 / ip_ratio=1.40 / aq=3:1.00
  38. Default                        : Yes
  39. Forced                         : No
  40.  
  41. Audio
  42. ID                             : 2
  43. Format                         : AAC
  44. Format/Info                    : Advanced Audio Codec
  45. Format profile                 : LC
  46. Codec ID                       : A_AAC
  47. Duration                       : 52 min 38 s
  48. Bit rate                       : 230 kb/s
  49. Channel(s)                     : 2 channels
  50. Channel positions              : Front: L R
  51. Sampling rate                  : 48.0 kHz
  52. Frame rate                     : 46.875 FPS (1024 SPF)
  53. Compression mode               : Lossy
  54. Delay relative to video        : 9 ms
  55. Stream size                    : 86.5 MiB (17%)
  56. Language                       : Japanese
  57. Default                        : No
  58. Forced                         : No
RAW Paste Data
We use cookies for various purposes including analytics. By continuing to use Pastebin, you agree to our use of cookies as described in the Cookies Policy. OK, I Understand
 
Top