SHARE
TWEET

Laibach - Macbeth.cue

markuspeloquin Jan 29th, 2012 350 Never
Not a member of Pastebin yet? Sign Up, it unlocks many cool features!
  1. REM GENRE Industrial
  2. REM DATE 1989
  3. REM DISCID 02079701
  4. REM COMMENT "ExactAudioCopy v1.0b3"
  5. REM COMMENT "I wrote this myself, mostly by guessing with Audacity."
  6. REM COMMENT "Version 1.1"
  7. PERFORMER "Laibach"
  8. TITLE "Macbeth"
  9. FILE "Laibach - Macbeth.wav" WAVE
  10.   TRACK 01 AUDIO
  11.     TITLE "Preludium"
  12.     PERFORMER "Laibach"
  13.     INDEX 01 00:00:00
  14.   TRACK 02 AUDIO
  15.     TITLE "Agnus Dei [Acropolis]"
  16.     PERFORMER "Laibach"
  17.     INDEX 01 01:04:15
  18.   TRACK 03 AUDIO
  19.     TITLE "Wutach Schlucht"
  20.     PERFORMER "Laibach"
  21.     INDEX 00 05:37:00
  22.     INDEX 01 05:53:21
  23.   TRACK 04 AUDIO
  24.     TITLE "Die Zeit"
  25.     PERFORMER "Laibach"
  26.     INDEX 01 10:04:30
  27.   TRACK 05 AUDIO
  28.     TITLE "Ohne Geld"
  29.     PERFORMER "Laibach"
  30.     INDEX 01 11:19:25
  31.   TRACK 06 AUDIO
  32.     TITLE "U.S.A."
  33.     PERFORMER "Laibach"
  34.     INDEX 01 15:10:30
  35.   TRACK 07 AUDIO
  36.     TITLE "10.5.1941"
  37.     PERFORMER "Laibach"
  38.     INDEX 01 15:59:62
  39.   TRACK 08 AUDIO
  40.     TITLE "Expectans expectavos"
  41.     PERFORMER "Laibach"
  42.     INDEX 01 16:15:27
  43.   TRACK 09 AUDIO
  44.     TITLE "Coincidentia oppositorum"
  45.     PERFORMER "Laibach"
  46.     INDEX 01 16:30:45
  47.   TRACK 10 AUDIO
  48.     TITLE "Wolf"
  49.     PERFORMER "Laibach"
  50.     INDEX 01 21:43:45
  51.   TRACK 11 AUDIO
  52.     TITLE "Agnus Dei [Exil und Tod]"
  53.     PERFORMER "Laibach"
  54.     INDEX 01 27:08:02
RAW Paste Data
We use cookies for various purposes including analytics. By continuing to use Pastebin, you agree to our use of cookies as described in the Cookies Policy. OK, I Understand
Top