Advertisement
Henry_Kr

DBZ-S02

Nov 14th, 2019 (edited)
1,619
0
Never
Not a member of Pastebin yet? Sign Up, it unlocks many cool features!
text 4.26 KB | None | 0 0
  1. Video
  2. ID : 1
  3. Format : AVC
  4. Format/Info : Advanced Video Codec
  5. Format profile : High@L4.1
  6. Format settings : CABAC / 4 Ref Frames
  7. Format settings, CABAC : Yes
  8. Format settings, Reference : 4 frames
  9. Codec ID : V_MPEG4/ISO/AVC
  10. Duration : 24 min 44 s
  11. Bit rate : 10 000 kb/s
  12. Width : 1 440 pixels
  13. Height : 1 080 pixels
  14. Display aspect ratio : 4:3
  15. Frame rate mode : Constant
  16. Frame rate : 23.873 FPS
  17. Color space : YUV
  18. Chroma subsampling : 4:2:0
  19. Bit depth : 8 bits
  20. Scan type : Progressive
  21. Bits/(Pixel*Frame) : 0.269
  22. Stream size : 1.73 GiB (94%)
  23. Title : Dragon.Ball.Z.S01E11.REPACK.1080p.Level.Sets.[CartoonNOW]
  24. Writing library : x264 core 157 r2935 545de2f
  25. Encoding settings : cabac=1 / ref=3 / deblock=1:0:0 / analyse=0x3:0x113 / me=hex / subme=7 / psy=1 / psy_rd=1.00:0.00 / mixed_ref=1 / me_range=16 / chroma_me=1 / trellis=1 / 8x8dct=1 / cqm=0 / deadzone=21,11 / fast_pskip=1 / chroma_qp_offset=-2 / threads=24 / lookahead_threads=4 / sliced_threads=0 / nr=0 / decimate=1 / interlaced=0 / bluray_compat=0 / constrained_intra=0 / bframes=3 / b_pyramid=2 / b_adapt=1 / b_bias=0 / direct=1 / weightb=1 / open_gop=0 / weightp=2 / keyint=240 / keyint_min=24 / scenecut=40 / intra_refresh=0 / rc_lookahead=40 / rc=2pass / mbtree=1 / bitrate=10000 / ratetol=1.0 / qcomp=0.60 / qpmin=0 / qpmax=69 / qpstep=4 / cplxblur=20.0 / qblur=0.5 / vbv_maxrate=62500 / vbv_bufsize=78125 / nal_hrd=none / filler=0 / ip_ratio=1.40 / aq=1:1.00
  26. Language : Japanese
  27. Default : Yes
  28. Forced : No
  29. Color range : Limited
  30. Color primaries : BT.709
  31. Transfer characteristics : BT.709
  32. Matrix coefficients : BT.709
  33.  
  34. Audio #1
  35. ID : 2
  36. Format : AC-3
  37. Format/Info : Audio Coding 3
  38. Commercial name : Dolby Digital
  39. Codec ID : A_AC3
  40. Duration : 24 min 43 s
  41. Bit rate mode : Constant
  42. Bit rate : 192 kb/s
  43. Channel(s) : 2 channels
  44. Channel layout : L R
  45. Sampling rate : 48.0 kHz
  46. Frame rate : 31.250 FPS (1536 SPF)
  47. Compression mode : Lossy
  48. Stream size : 34.0 MiB (2%)
  49. Title : AC3 2.0
  50. Language : Portuguese
  51. Service kind : Complete Main
  52. Default : Yes
  53. Forced : No
  54.  
  55. Audio #2
  56. ID : 3
  57. Format : DTS
  58. Format/Info : Digital Theater Systems
  59. Codec ID : A_DTS
  60. Duration : 24 min 43 s
  61. Bit rate mode : Constant
  62. Bit rate : 447 kb/s
  63. Channel(s) : 2 channels
  64. Channel layout : L R
  65. Sampling rate : 48.0 kHz
  66. Frame rate : 93.750 FPS (512 SPF)
  67. Bit depth : 24 bits
  68. Compression mode : Lossy
  69. Stream size : 79.1 MiB (4%)
  70. Title : DTS 2.0
  71. Language : Japanese
  72. Default : No
  73. Forced : No
  74.  
  75. Text
  76. ID : 4
  77. Format : ASS
  78. Codec ID : S_TEXT/ASS
  79. Codec ID/Info : Advanced Sub Station Alpha
  80. Duration : 24 min 27 s
  81. Bit rate : 473 b/s
  82. Count of elements : 203
  83. Compression mode : Lossless
  84. Stream size : 84.8 KiB (0%)
  85. Title : Completa
  86. Language : Portuguese
  87. Default : No
  88. Forced : No
  89.  
  90. Menu
  91. 00:00:00.000 : : Chapter 1
  92. 00:01:50.318 : : Chapter 2
  93. 00:03:01.514 : : Chapter 3
  94. 00:13:46.534 : : Chapter 4
  95. 00:22:34.770 : : Chapter 5
  96. 00:24:12.741 : : Chapter 6
Advertisement
Add Comment
Please, Sign In to add comment
Advertisement