Henry_Kr

DBZ-S02

Nov 14th, 2019
307
Never
Not a member of Pastebin yet? Sign Up, it unlocks many cool features!
  1. Video
  2. ID : 1
  3. Format : AVC
  4. Format/Info : Advanced Video Codec
  5. Format profile : High@L4.2
  6. Format settings : CABAC / 4 Ref Frames
  7. Format settings, CABAC : Yes
  8. Format settings, Reference : 4 frames
  9. Muxing mode : Header stripping
  10. Codec ID : V_MPEG4/ISO/AVC
  11. Duration : 24 min 43 s
  12. Bit rate : 6 500 kb/s
  13. Width : 1 440 pixels
  14. Height : 1 080 pixels
  15. Display aspect ratio : 4:3
  16. Frame rate mode : Constant
  17. Frame rate : 23.976 (24000/1001) FPS
  18. Color space : YUV
  19. Chroma subsampling : 4:2:0
  20. Bit depth : 8 bits
  21. Scan type : Progressive
  22. Bits/(Pixel*Frame) : 0.174
  23. Stream size : 1.10 GiB (92%)
  24. Title : Dragon.Ball.Z.S02E05.1080p.30th.Anniversary.Bluray.[CartoonNOW]
  25. Language : Japanese
  26. Default : Yes
  27. Forced : No
  28. Color range : Limited
  29. Color primaries : BT.709
  30. Transfer characteristics : BT.709
  31. Matrix coefficients : BT.709
  32.  
  33. Audio #1
  34. ID : 2
  35. Format : AC-3
  36. Format/Info : Audio Coding 3
  37. Commercial name : Dolby Digital
  38. Muxing mode : Header stripping
  39. Codec ID : A_AC3
  40. Duration : 24 min 43 s
  41. Bit rate mode : Constant
  42. Bit rate : 192 kb/s
  43. Channel(s) : 2 channels
  44. Channel layout : L R
  45. Sampling rate : 48.0 kHz
  46. Frame rate : 31.250 FPS (1536 SPF)
  47. Compression mode : Lossy
  48. Stream size : 33.9 MiB (3%)
  49. Title : AC3 2.0
  50. Language : Portuguese
  51. Service kind : Complete Main
  52. Default : Yes
  53. Forced : No
  54.  
  55. Audio #2
  56. ID : 3
  57. Format : AC-3
  58. Format/Info : Audio Coding 3
  59. Commercial name : Dolby Digital
  60. Muxing mode : Header stripping
  61. Codec ID : A_AC3
  62. Duration : 24 min 43 s
  63. Bit rate mode : Constant
  64. Bit rate : 192 kb/s
  65. Channel(s) : 2 channels
  66. Channel layout : L R
  67. Sampling rate : 48.0 kHz
  68. Frame rate : 31.250 FPS (1536 SPF)
  69. Compression mode : Lossy
  70. Stream size : 33.9 MiB (3%)
  71. Title : AC3 2.0
  72. Language : Japanese
  73. Service kind : Complete Main
  74. Default : No
  75. Forced : No
  76.  
  77. Text #1
  78. ID : 4
  79. Format : ASS
  80. Codec ID : S_TEXT/ASS
  81. Codec ID/Info : Advanced Sub Station Alpha
  82. Compression mode : Lossless
  83. Title : Forçada
  84. Language : Portuguese
  85. Default : No
  86. Forced : Yes
  87.  
  88. Text #2
  89. ID : 5
  90. Format : ASS
  91. Codec ID : S_TEXT/ASS
  92. Codec ID/Info : Advanced Sub Station Alpha
  93. Compression mode : Lossless
  94. Title : Completa
  95. Language : Portuguese
  96. Default : No
  97. Forced : No
  98.  
  99. Menu
  100. 00:01:49.159 : en: Chapter 1
  101. 00:12:00.875 : en: Chapter 2
  102. 00:22:34.468 : en: Chapter 3
  103. 00:24:12.201 : en: Chapter 4
RAW Paste Data