SHARE
TWEET

Das.Boot.1981.Director's.Cut.1080p.DTS-HD.MA.5.1.AVC.REMUX-FraMeSToR

a guest Jun 17th, 2019 51 Never
Not a member of Pastebin yet? Sign Up, it unlocks many cool features!
  1. General
  2. Complete name                            : Das.Boot.1981.Director's.Cut.1080p.DTS-HD.MA.5.1.AVC.REMUX-FraMeSToR.mkv
  3. Format                                   : Matroska
  4. Format version                           : Version 4
  5. File size                                : 37.6 GiB
  6. Duration                                 : 3 h 28 min
  7. Overall bit rate mode                    : Variable
  8. Overall bit rate                         : 25.8 Mb/s
  9. Encoded date                             : UTC 2017-05-29 16:11:41
  10. Writing application                      : mkvmerge v12.0.0 ('Trust / Lust') 64bit
  11. Writing library                          : libebml v1.3.4 + libmatroska v1.4.5
  12.  
  13. Video
  14. ID                                       : 1
  15. Format                                   : AVC
  16. Format/Info                              : Advanced Video Codec
  17. Format profile                           : High@L4.1
  18. Format settings                          : CABAC / 2 Ref Frames
  19. Format settings, CABAC                   : Yes
  20. Format settings, Reference frames        : 2 frames
  21. Codec ID                                 : V_MPEG4/ISO/AVC
  22. Duration                                 : 3 h 28 min
  23. Bit rate mode                            : Variable
  24. Bit rate                                 : 23.0 Mb/s
  25. Width                                    : 1 920 pixels
  26. Height                                   : 1 080 pixels
  27. Display aspect ratio                     : 16:9
  28. Frame rate mode                          : Constant
  29. Frame rate                               : 23.976 (24000/1001) FPS
  30. Color space                              : YUV
  31. Chroma subsampling                       : 4:2:0
  32. Bit depth                                : 8 bits
  33. Scan type                                : Progressive
  34. Bits/(Pixel*Frame)                       : 0.463
  35. Stream size                              : 33.5 GiB (89%)
  36. Default                                  : Yes
  37. Forced                                   : No
  38.  
  39. Audio #1
  40. ID                                       : 2
  41. Format                                   : DTS XLL
  42. Format/Info                              : Digital Theater Systems
  43. Commercial name                          : DTS-HD Master Audio
  44. Codec ID                                 : A_DTS
  45. Duration                                 : 3 h 28 min
  46. Bit rate mode                            : Variable
  47. Bit rate                                 : 2 325 kb/s
  48. Channel(s)                               : 6 channels
  49. Channel layout                           : C L R Ls Rs LFE
  50. Sampling rate                            : 48.0 kHz
  51. Frame rate                               : 93.750 FPS (512 SPF)
  52. Bit depth                                : 16 bits
  53. Compression mode                         : Lossless
  54. Stream size                              : 3.38 GiB (9%)
  55. Title                                    : DTS-HD MA 5.1
  56. Language                                 : German
  57. Default                                  : Yes
  58. Forced                                   : No
  59.  
  60. Audio #2
  61. ID                                       : 3
  62. Format                                   : AC-3
  63. Format/Info                              : Audio Coding 3
  64. Commercial name                          : Dolby Digital
  65. Codec ID                                 : A_AC3
  66. Duration                                 : 3 h 28 min
  67. Bit rate mode                            : Constant
  68. Bit rate                                 : 192 kb/s
  69. Channel(s)                               : 2 channels
  70. Channel layout                           : L R
  71. Sampling rate                            : 48.0 kHz
  72. Frame rate                               : 31.250 FPS (1536 SPF)
  73. Bit depth                                : 16 bits
  74. Compression mode                         : Lossy
  75. Stream size                              : 286 MiB (1%)
  76. Title                                    : Commentary by Wolfgang Petersen/J├╝rgen Prochnow/Ortwin Freyermuth
  77. Language                                 : English
  78. Service kind                             : Complete Main
  79. Default                                  : No
  80. Forced                                   : No
  81.  
  82. Text #1
  83. ID                                       : 4
  84. Format                                   : PGS
  85. Codec ID                                 : S_HDMV/PGS
  86. Codec ID/Info                            : Picture based subtitle format used on BDs/HD-DVDs
  87. Duration                                 : 2 h 39 min
  88. Bit rate                                 : 143 b/s
  89. Count of elements                        : 18
  90. Stream size                              : 168 KiB (0%)
  91. Title                                    : English (Forced)
  92. Language                                 : English
  93. Default                                  : Yes
  94. Forced                                   : No
  95.  
  96. Text #2
  97. ID                                       : 5
  98. Format                                   : PGS
  99. Codec ID                                 : S_HDMV/PGS
  100. Codec ID/Info                            : Picture based subtitle format used on BDs/HD-DVDs
  101. Duration                                 : 3 h 16 min
  102. Bit rate                                 : 13.9 kb/s
  103. Count of elements                        : 2914
  104. Stream size                              : 19.5 MiB (0%)
  105. Title                                    : English
  106. Language                                 : English
  107. Default                                  : No
  108. Forced                                   : No
  109.  
  110. Text #3
  111. ID                                       : 6
  112. Format                                   : PGS
  113. Codec ID                                 : S_HDMV/PGS
  114. Codec ID/Info                            : Picture based subtitle format used on BDs/HD-DVDs
  115. Duration                                 : 3 h 23 min
  116. Bit rate                                 : 12.0 kb/s
  117. Count of elements                        : 3762
  118. Stream size                              : 17.4 MiB (0%)
  119. Title                                    : English (SDH)
  120. Language                                 : English
  121. Default                                  : No
  122. Forced                                   : No
  123.  
  124. Text #4
  125. ID                                       : 7
  126. Format                                   : PGS
  127. Codec ID                                 : S_HDMV/PGS
  128. Codec ID/Info                            : Picture based subtitle format used on BDs/HD-DVDs
  129. Duration                                 : 3 h 27 min
  130. Bit rate                                 : 15.1 kb/s
  131. Count of elements                        : 3086
  132. Stream size                              : 22.4 MiB (0%)
  133. Title                                    : French
  134. Language                                 : French
  135. Default                                  : No
  136. Forced                                   : No
  137.  
  138. Text #5
  139. ID                                       : 8
  140. Format                                   : PGS
  141. Codec ID                                 : S_HDMV/PGS
  142. Codec ID/Info                            : Picture based subtitle format used on BDs/HD-DVDs
  143. Duration                                 : 3 h 18 min
  144. Bit rate                                 : 9 161 b/s
  145. Count of elements                        : 2934
  146. Stream size                              : 13.0 MiB (0%)
  147. Title                                    : Arabic
  148. Language                                 : Arabic
  149. Default                                  : No
  150. Forced                                   : No
  151.  
  152. Text #6
  153. ID                                       : 9
  154. Format                                   : PGS
  155. Codec ID                                 : S_HDMV/PGS
  156. Codec ID/Info                            : Picture based subtitle format used on BDs/HD-DVDs
  157. Duration                                 : 3 h 18 min
  158. Bit rate                                 : 14.2 kb/s
  159. Count of elements                        : 2934
  160. Stream size                              : 20.1 MiB (0%)
  161. Title                                    : Danish
  162. Language                                 : Danish
  163. Default                                  : No
  164. Forced                                   : No
  165.  
  166. Text #7
  167. ID                                       : 10
  168. Format                                   : PGS
  169. Codec ID                                 : S_HDMV/PGS
  170. Codec ID/Info                            : Picture based subtitle format used on BDs/HD-DVDs
  171. Duration                                 : 3 h 18 min
  172. Bit rate                                 : 13.6 kb/s
  173. Count of elements                        : 2934
  174. Stream size                              : 19.4 MiB (0%)
  175. Title                                    : Dutch
  176. Language                                 : Dutch
  177. Default                                  : No
  178. Forced                                   : No
  179.  
  180. Text #8
  181. ID                                       : 11
  182. Format                                   : PGS
  183. Codec ID                                 : S_HDMV/PGS
  184. Codec ID/Info                            : Picture based subtitle format used on BDs/HD-DVDs
  185. Duration                                 : 3 h 18 min
  186. Bit rate                                 : 15.1 kb/s
  187. Count of elements                        : 2716
  188. Stream size                              : 21.4 MiB (0%)
  189. Title                                    : Finnish
  190. Language                                 : Finnish
  191. Default                                  : No
  192. Forced                                   : No
  193.  
  194. Text #9
  195. ID                                       : 12
  196. Format                                   : PGS
  197. Codec ID                                 : S_HDMV/PGS
  198. Codec ID/Info                            : Picture based subtitle format used on BDs/HD-DVDs
  199. Duration                                 : 3 h 18 min
  200. Bit rate                                 : 13.4 kb/s
  201. Count of elements                        : 2932
  202. Stream size                              : 19.1 MiB (0%)
  203. Title                                    : Hindi
  204. Language                                 : Hindi
  205. Default                                  : No
  206. Forced                                   : No
  207.  
  208. Text #10
  209. ID                                       : 13
  210. Format                                   : PGS
  211. Codec ID                                 : S_HDMV/PGS
  212. Codec ID/Info                            : Picture based subtitle format used on BDs/HD-DVDs
  213. Duration                                 : 3 h 18 min
  214. Bit rate                                 : 13.8 kb/s
  215. Count of elements                        : 2894
  216. Stream size                              : 19.7 MiB (0%)
  217. Title                                    : Norwegian
  218. Language                                 : Norwegian
  219. Default                                  : No
  220. Forced                                   : No
  221.  
  222. Text #11
  223. ID                                       : 14
  224. Format                                   : PGS
  225. Codec ID                                 : S_HDMV/PGS
  226. Codec ID/Info                            : Picture based subtitle format used on BDs/HD-DVDs
  227. Duration                                 : 3 h 18 min
  228. Bit rate                                 : 14.1 kb/s
  229. Count of elements                        : 2926
  230. Stream size                              : 20.0 MiB (0%)
  231. Title                                    : Swedish
  232. Language                                 : Swedish
  233. Default                                  : No
  234. Forced                                   : No
  235.  
  236. Text #12
  237. ID                                       : 15
  238. Format                                   : PGS
  239. Codec ID                                 : S_HDMV/PGS
  240. Codec ID/Info                            : Picture based subtitle format used on BDs/HD-DVDs
  241. Duration                                 : 3 h 24 min
  242. Bit rate                                 : 54.3 kb/s
  243. Count of elements                        : 6018
  244. Stream size                              : 79.4 MiB (0%)
  245. Title                                    : English (Commentary)
  246. Language                                 : English
  247. Default                                  : No
  248. Forced                                   : No
  249.  
  250. Text #13
  251. ID                                       : 16
  252. Format                                   : PGS
  253. Codec ID                                 : S_HDMV/PGS
  254. Codec ID/Info                            : Picture based subtitle format used on BDs/HD-DVDs
  255. Duration                                 : 3 h 24 min
  256. Bit rate                                 : 41.0 kb/s
  257. Count of elements                        : 4414
  258. Stream size                              : 59.9 MiB (0%)
  259. Title                                    : Dutch (Commentary)
  260. Language                                 : Dutch
  261. Default                                  : No
  262. Forced                                   : No
  263.  
  264. Text #14
  265. ID                                       : 17
  266. Format                                   : PGS
  267. Codec ID                                 : S_HDMV/PGS
  268. Codec ID/Info                            : Picture based subtitle format used on BDs/HD-DVDs
  269. Duration                                 : 3 h 24 min
  270. Bit rate                                 : 55.4 kb/s
  271. Count of elements                        : 6016
  272. Stream size                              : 81.0 MiB (0%)
  273. Title                                    : French (Commentary)
  274. Language                                 : French
  275. Default                                  : No
  276. Forced                                   : No
  277.  
  278. Menu
  279. 00:00:00.000                             : en:Second propeller sounds
  280. 00:12:25.161                             : en:Shell-shocked
  281. 00:26:07.691                             : en:That sinking feeling
  282. 00:37:39.465                             : en:Six hours later
  283. 00:44:45.974                             : en:Finishing her off
  284. 01:18:50.267                             : en:Radiograms
  285. 01:33:19.176                             : en:Johann apologizes
  286. 01:54:44.210                             : en:Ordered to a new port
  287. 01:59:37.211                             : en:The Captain's decision
  288. 02:10:01.376                             : en:Seeking the Weser
  289. 02:21:46.539                             : en:Welcoming the heroic crew
  290. 02:36:34.218                             : en:Orders from headquarters
  291. 02:42:50.969                             : en:The Captain's plan
  292. 02:51:29.904                             : en:Sneaking past the fleet
  293. 03:04:02.114                             : en:Alarm!
  294. 03:12:07.265                             : en:Going down
RAW Paste Data
We use cookies for various purposes including analytics. By continuing to use Pastebin, you agree to our use of cookies as described in the Cookies Policy. OK, I Understand
Not a member of Pastebin yet?
Sign Up, it unlocks many cool features!
 
Top