Advertisement
Henry_Kr

MoUR-S01

Jul 23rd, 2021
131
Never
Not a member of Pastebin yet? Sign Up, it unlocks many cool features!
text 4.35 KB | None
  1. Video
  2. ID : 1
  3. Format : AVC
  4. Format/Info : Advanced Video Codec
  5. Format profile : Main@L4
  6. Format settings : CABAC / 3 Ref Frames
  7. Format settings, CABAC : Yes
  8. Format settings, Reference : 3 frames
  9. Muxing mode : Header stripping
  10. Codec ID : V_MPEG4/ISO/AVC
  11. Duration : 25 min 50 s
  12. Bit rate mode : Variable
  13. Bit rate : 5 655 kb/s
  14. Nominal bit rate : 6 190 kb/s
  15. Maximum bit rate : 9 285 kb/s
  16. Width : 1 920 pixels
  17. Height : 1 080 pixels
  18. Display aspect ratio : 16:9
  19. Frame rate mode : Constant
  20. Frame rate : 24.000 FPS
  21. Color space : YUV
  22. Chroma subsampling : 4:2:0
  23. Bit depth : 8 bits
  24. Scan type : Progressive
  25. Bits/(Pixel*Frame) : 0.114
  26. Stream size : 1.02 GiB (80%)
  27. Title : Masters.of.the.Universe.Revelation.S01E01.Poderes.de.Grayskull.1080p.NF.WEB.[CartoonNOW]
  28. Writing library : x264 core 148 r2722 1b0121b
  29. Encoding settings : cabac=1 / ref=3 / deblock=1:0:0 / analyse=0x1:0x111 / me=umh / subme=10 / psy=1 / psy_rd=1.00:0.00 / mixed_ref=1 / me_range=24 / chroma_me=1 / trellis=2 / 8x8dct=0 / cqm=0 / deadzone=21,11 / fast_pskip=1 / chroma_qp_offset=-2 / threads=8 / lookahead_threads=1 / sliced_threads=0 / nr=0 / decimate=1 / interlaced=0 / bluray_compat=0 / stitchable=1 / constrained_intra=0 / bframes=2 / b_pyramid=0 / b_adapt=2 / b_bias=0 / direct=3 / weightb=1 / open_gop=0 / weightp=2 / keyint=250 / keyint_min=24 / scenecut=0 / intra_refresh=0 / rc_lookahead=48 / rc=2pass / mbtree=1 / bitrate=6190 / ratetol=1.0 / qcomp=0.50 / qpmin=6 / qpmax=51 / qpstep=4 / cplxblur=20.0 / qblur=0.5 / vbv_maxrate=9285 / vbv_bufsize=12380 / nal_hrd=vbr / filler=0 / ip_ratio=1.40 / aq=1:1.00
  30. Language : English
  31. Default : Yes
  32. Forced : No
  33.  
  34. Audio #1
  35. ID : 2
  36. Format : E-AC-3
  37. Format/Info : Enhanced AC-3
  38. Commercial name : Dolby Digital Plus
  39. Muxing mode : Header stripping
  40. Codec ID : A_EAC3
  41. Duration : 25 min 50 s
  42. Bit rate mode : Constant
  43. Bit rate : 640 kb/s
  44. Channel(s) : 6 channels
  45. Channel layout : L R C LFE Ls Rs
  46. Sampling rate : 48.0 kHz
  47. Frame rate : 31.250 FPS (1536 SPF)
  48. Compression mode : Lossy
  49. Stream size : 118 MiB (9%)
  50. Title : E-AC3 5.1
  51. Language : Portuguese
  52. Service kind : Complete Main
  53. Default : Yes
  54. Forced : No
  55.  
  56. Audio #2
  57. ID : 3
  58. Format : E-AC-3
  59. Format/Info : Enhanced AC-3
  60. Commercial name : Dolby Digital Plus
  61. Muxing mode : Header stripping
  62. Codec ID : A_EAC3
  63. Duration : 25 min 50 s
  64. Bit rate mode : Constant
  65. Bit rate : 640 kb/s
  66. Channel(s) : 6 channels
  67. Channel layout : L R C LFE Ls Rs
  68. Sampling rate : 48.0 kHz
  69. Frame rate : 31.250 FPS (1536 SPF)
  70. Compression mode : Lossy
  71. Stream size : 118 MiB (9%)
  72. Title : E-AC3 5.1
  73. Language : English
  74. Service kind : Complete Main
  75. Default : No
  76. Forced : No
  77.  
  78. Text #1
  79. ID : 4
  80. Format : UTF-8
  81. Codec ID : S_TEXT/UTF8
  82. Codec ID/Info : UTF-8 Plain Text
  83. Title : Forçada
  84. Language : Portuguese
  85. Default : No
  86. Forced : Yes
  87.  
  88. Text #2
  89. ID : 5
  90. Format : UTF-8
  91. Codec ID : S_TEXT/UTF8
  92. Codec ID/Info : UTF-8 Plain Text
  93. Title : Completa
  94. Language : Portuguese
  95. Default : No
  96. Forced : No
Advertisement
RAW Paste Data Copied
Advertisement