Guest User

The.Final.Countdown.1980.1080p.BluRay.REMUX.VC-1.DTS-HD.MA.7.1-EPSiLON

a guest
Jun 17th, 2019
42
Never
Not a member of Pastebin yet? Sign Up, it unlocks many cool features!
  1. General
  2. Complete name                            : The.Final.Countdown.1980.1080p.BluRay.REMUX.VC-1.DTS-HD.MA.7.1-EPSiLON.mkv
  3. Format                                   : Matroska
  4. Format version                           : Version 4
  5. File size                                : 24.0 GiB
  6. Duration                                 : 1 h 42 min
  7. Overall bit rate mode                    : Variable
  8. Overall bit rate                         : 33.5 Mb/s
  9. Encoded date                             : UTC 2019-06-16 07:31:10
  10. Writing application                      : mkvmerge v34.0.0 ('Sight and Seen') 64-bit
  11. Writing library                          : libebml v1.3.7 + libmatroska v1.5.0
  12. IMDB                                     : tt0080736
  13. TMDB                                     : movie/8738
  14.  
  15. Video
  16. ID                                       : 1
  17. Format                                   : VC-1
  18. Format profile                           : Advanced@L3
  19. Codec ID                                 : V_MS/VFW/FOURCC / WVC1
  20. Codec ID/Hint                            : Microsoft
  21. Duration                                 : 1 h 42 min
  22. Bit rate                                 : 27.9 Mb/s
  23. Width                                    : 1 920 pixels
  24. Height                                   : 1 080 pixels
  25. Display aspect ratio                     : 16:9
  26. Frame rate mode                          : Constant
  27. Frame rate                               : 23.976 (24000/1001) FPS
  28. Color space                              : YUV
  29. Chroma subsampling                       : 4:2:0
  30. Bit depth                                : 8 bits
  31. Scan type                                : Progressive
  32. Compression mode                         : Lossy
  33. Bits/(Pixel*Frame)                       : 0.562
  34. Stream size                              : 20.0 GiB (83%)
  35. Title                                    : VC-1 Video / 27942 kbps / 1080p / 23.976 fps / 16:9 / Advanced Profile 3
  36. Language                                 : English
  37. Default                                  : Yes
  38. Forced                                   : No
  39.  
  40. Audio #1
  41. ID                                       : 2
  42. Format                                   : DTS XLL
  43. Format/Info                              : Digital Theater Systems
  44. Commercial name                          : DTS-HD Master Audio
  45. Codec ID                                 : A_DTS
  46. Duration                                 : 1 h 42 min
  47. Bit rate mode                            : Variable
  48. Bit rate                                 : 4 745 kb/s
  49. Channel(s)                               : 8 channels
  50. Channel layout                           : C L R LFE Lb Rb Lss Rss
  51. Sampling rate                            : 48.0 kHz
  52. Frame rate                               : 93.750 FPS (512 SPF)
  53. Bit depth                                : 24 bits
  54. Compression mode                         : Lossless
  55. Stream size                              : 3.40 GiB (14%)
  56. Title                                    : DTS-HD Master Audio / 7.1 / 48 kHz / 4745 kbps / 24-bit
  57. Language                                 : English
  58. Default                                  : Yes
  59. Forced                                   : No
  60.  
  61. Audio #2
  62. ID                                       : 3
  63. Format                                   : AC-3
  64. Format/Info                              : Audio Coding 3
  65. Commercial name                          : Dolby Digital
  66. Codec ID                                 : A_AC3
  67. Duration                                 : 1 h 42 min
  68. Bit rate mode                            : Constant
  69. Bit rate                                 : 640 kb/s
  70. Channel(s)                               : 2 channels
  71. Channel layout                           : L R
  72. Sampling rate                            : 48.0 kHz
  73. Frame rate                               : 31.250 FPS (1536 SPF)
  74. Bit depth                                : 16 bits
  75. Compression mode                         : Lossy
  76. Stream size                              : 470 MiB (2%)
  77. Title                                    : Commentary by cinematographer Victor J. Kemper and Blue Underground representative David Gregory
  78. Language                                 : English
  79. Service kind                             : Complete Main
  80. Default                                  : No
  81. Forced                                   : No
  82.  
  83. Text #1
  84. ID                                       : 4
  85. Format                                   : PGS
  86. Codec ID                                 : S_HDMV/PGS
  87. Codec ID/Info                            : Picture based subtitle format used on BDs/HD-DVDs
  88. Duration                                 : 1 h 38 min
  89. Bit rate                                 : 55.3 kb/s
  90. Count of elements                        : 2072
  91. Stream size                              : 39.2 MiB (0%)
  92. Title                                    : SDH
  93. Language                                 : English
  94. Default                                  : No
  95. Forced                                   : No
  96.  
  97. Text #2
  98. ID                                       : 5
  99. Format                                   : PGS
  100. Codec ID                                 : S_HDMV/PGS
  101. Codec ID/Info                            : Picture based subtitle format used on BDs/HD-DVDs
  102. Duration                                 : 1 h 38 min
  103. Bit rate                                 : 52.8 kb/s
  104. Count of elements                        : 1954
  105. Stream size                              : 37.4 MiB (0%)
  106. Title                                    : Canadian
  107. Language                                 : French
  108. Default                                  : No
  109. Forced                                   : No
  110.  
  111. Text #3
  112. ID                                       : 6
  113. Format                                   : PGS
  114. Codec ID                                 : S_HDMV/PGS
  115. Codec ID/Info                            : Picture based subtitle format used on BDs/HD-DVDs
  116. Duration                                 : 1 h 38 min
  117. Bit rate                                 : 45.4 kb/s
  118. Count of elements                        : 1952
  119. Stream size                              : 32.1 MiB (0%)
  120. Title                                    : Latin American
  121. Language                                 : Spanish
  122. Default                                  : No
  123. Forced                                   : No
  124.  
  125. Menu
  126. 00:00:00.000                             : en:Chapter 1
  127. 00:06:57.125                             : en:Chapter 2
  128. 00:10:52.110                             : en:Chapter 3
  129. 00:15:12.495                             : en:Chapter 4
  130. 00:19:47.603                             : en:Chapter 5
  131. 00:23:25.738                             : en:Chapter 6
  132. 00:30:14.896                             : en:Chapter 7
  133. 00:33:43.480                             : en:Chapter 8
  134. 00:37:37.755                             : en:Chapter 9
  135. 00:42:36.345                             : en:Chapter 10
  136. 00:47:14.790                             : en:Chapter 11
  137. 00:51:47.980                             : en:Chapter 12
  138. 00:56:46.903                             : en:Chapter 13
  139. 01:00:11.733                             : en:Chapter 14
  140. 01:04:07.427                             : en:Chapter 15
  141. 01:12:58.708                             : en:Chapter 16
  142. 01:17:37.194                             : en:Chapter 17
  143. 01:21:29.593                             : en:Chapter 18
  144. 01:24:20.889                             : en:Chapter 19
  145. 01:29:56.975                             : en:Chapter 20
  146. 01:34:05.765                             : en:Chapter 21
  147. 01:39:52.820                             : en:Chapter 22
RAW Paste Data