SHARE
TWEET

Bad.Boys.1983.1080p.BluRay.REMUX.AVC.DTS-HD.MA.2.0-EPSiLON

a guest Jun 11th, 2019 108 Never
Not a member of Pastebin yet? Sign Up, it unlocks many cool features!
  1. General
  2. Unique ID                                : 266805442026846922964169354391357461623 (0xC8B8DBE83E388D2987F5151030D39477)
  3. Complete name                            : Bad.Boys.1983.1080p.BluRay.REMUX.AVC.DTS-HD.MA.2.0-EPSiLON.mkv
  4. Format                                   : Matroska
  5. Format version                           : Version 4
  6. File size                                : 18.4 GiB
  7. Duration                                 : 2 h 3 min
  8. Overall bit rate mode                    : Variable
  9. Overall bit rate                         : 21.3 Mb/s
  10. Movie name                               : Bad.Boys.1983.1080p.BluRay.REMUX.AVC.DTS-HD.MA.2.0-EPSiLON
  11. Encoded date                             : UTC 2017-09-20 17:17:50
  12. Writing application                      : mkvmerge v9.6.0 ('Slave To Your Mind') 64bit
  13. Writing library                          : libebml v1.3.4 + libmatroska v1.4.5
  14.  
  15. Video
  16. ID                                       : 1
  17. Format                                   : AVC
  18. Format/Info                              : Advanced Video Codec
  19. Format profile                           : High@L4.1
  20. Format settings                          : CABAC / 4 Ref Frames
  21. Format settings, CABAC                   : Yes
  22. Format settings, Reference frames        : 4 frames
  23. Format settings, GOP                     : M=3, N=24
  24. Codec ID                                 : V_MPEG4/ISO/AVC
  25. Duration                                 : 2 h 3 min
  26. Bit rate mode                            : Variable
  27. Bit rate                                 : 19.0 Mb/s
  28. Maximum bit rate                         : 35.0 Mb/s
  29. Width                                    : 1 920 pixels
  30. Height                                   : 1 080 pixels
  31. Display aspect ratio                     : 16:9
  32. Frame rate mode                          : Constant
  33. Frame rate                               : 23.976 (24000/1001) FPS
  34. Standard                                 : NTSC
  35. Color space                              : YUV
  36. Chroma subsampling                       : 4:2:0
  37. Bit depth                                : 8 bits
  38. Scan type                                : Progressive
  39. Bits/(Pixel*Frame)                       : 0.382
  40. Stream size                              : 16.4 GiB (89%)
  41. Title                                    : MPEG-4 AVC Video / 18999 kbps / 1080p / 23.976 fps / 16:9 / High Profile 4.1
  42. Language                                 : English
  43. Default                                  : Yes
  44. Forced                                   : No
  45. Color range                              : Limited
  46. Color primaries                          : BT.709
  47. Transfer characteristics                 : BT.709
  48. Matrix coefficients                      : BT.709
  49.  
  50. Audio
  51. ID                                       : 2
  52. Format                                   : DTS XLL
  53. Format/Info                              : Digital Theater Systems
  54. Commercial name                          : DTS-HD Master Audio
  55. Codec ID                                 : A_DTS
  56. Duration                                 : 2 h 3 min
  57. Bit rate mode                            : Variable
  58. Bit rate                                 : 1 940 kb/s
  59. Channel(s)                               : 2 channels
  60. Channel layout                           : L R
  61. Sampling rate                            : 48.0 kHz
  62. Frame rate                               : 93.750 FPS (512 SPF)
  63. Bit depth                                : 24 bits
  64. Compression mode                         : Lossless
  65. Stream size                              : 1.68 GiB (9%)
  66. Title                                    : DTS-HD Master Audio / 2.0 / 48 kHz / 1943 kbps / 24-bit
  67. Language                                 : English
  68. Default                                  : Yes
  69. Forced                                   : No
  70.  
  71. Text #1
  72. ID                                       : 3
  73. Format                                   : PGS
  74. Codec ID                                 : S_HDMV/PGS
  75. Codec ID/Info                            : Picture based subtitle format used on BDs/HD-DVDs
  76. Duration                                 : 1 h 56 min
  77. Bit rate                                 : 357 kb/s
  78. Count of elements                        : 13350
  79. Stream size                              : 298 MiB (2%)
  80. Language                                 : English
  81. Default                                  : No
  82. Forced                                   : No
  83.  
  84. Text #2
  85. ID                                       : 4
  86. Format                                   : PGS
  87. Codec ID                                 : S_HDMV/PGS
  88. Codec ID/Info                            : Picture based subtitle format used on BDs/HD-DVDs
  89. Duration                                 : 1 h 56 min
  90. Bit rate                                 : 21.3 kb/s
  91. Count of elements                        : 1890
  92. Stream size                              : 17.8 MiB (0%)
  93. Language                                 : Dutch
  94. Default                                  : No
  95. Forced                                   : No
  96.  
  97. Menu
  98. 00:00:00.000                             : en:Start
  99. 00:07:53.556                             : en:Smash and Grab
  100. 00:17:01.311                             : en:Mick and J.C.
  101. 00:25:13.887                             : en:Deal Gone Bad
  102. 00:35:03.101                             : en:Fresh Meat
  103. 00:44:41.595                             : en:Live on the Inside
  104. 00:53:44.846                             : en:Code of Silence
  105. 01:05:24.086                             : en:New Barn Boss
  106. 01:10:38.192                             : en:Rape
  107. 01:22:23.480                             : en:Unauthorized Conjugal Visit
  108. 01:27:51.224                             : en:Paco Arrives
  109. 01:38:19.059                             : en:Ready to Blow
  110. 01:42:51.707                             : en:Surprise Inspection
  111. 01:51:14.042                             : en:"Here Comes the Night"
  112. 01:56:35.238                             : en:Debt of Blood
  113. 01:58:26.057                             : en:Redemption
RAW Paste Data
We use cookies for various purposes including analytics. By continuing to use Pastebin, you agree to our use of cookies as described in the Cookies Policy. OK, I Understand
Not a member of Pastebin yet?
Sign Up, it unlocks many cool features!
 
Top