Advertisement
Henry_Kr

SK2021-S1

Aug 2nd, 2021
85
Never
Not a member of Pastebin yet? Sign Up, it unlocks many cool features!
text 4.04 KB | None
  1. Video
  2. ID : 1
  3. Format : AVC
  4. Format/Info : Advanced Video Codec
  5. Format profile : High 10@L4.1
  6. Format settings : CABAC / 4 Ref Frames
  7. Format settings, CABAC : Yes
  8. Format settings, Reference : 4 frames
  9. Muxing mode : Header stripping
  10. Codec ID : V_MPEG4/ISO/AVC
  11. Duration : 24 min 1 s
  12. Bit rate : 3 219 kb/s
  13. Width : 1 920 pixels
  14. Height : 1 080 pixels
  15. Display aspect ratio : 16:9
  16. Frame rate mode : Constant
  17. Frame rate : 23.976 (24000/1001) FPS
  18. Color space : YUV
  19. Chroma subsampling : 4:2:0
  20. Bit depth : 10 bits
  21. Scan type : Progressive
  22. Bits/(Pixel*Frame) : 0.065
  23. Stream size : 553 MiB (91%)
  24. Title : Shaman.King.2021.S01E01.1080p.NF.WEB.[CartoonNOW]
  25. Writing library : x264 core 161 r3048+53M 0749c36 t_mod_New [(8 & 10)-bit@all X86_64]
  26. Encoding settings : cabac=1 / ref=4 / deblock=1:-2:-2 / analyse=0x3:0x133 / me=tesa / subme=11 / psy=1 / fade_compensate=0.00 / psy_rd=1.00:0.00 / mixed_ref=1 / me_range=32 / chroma_me=1 / trellis=2 / 8x8dct=1 / cqm=0 / deadzone=21,11 / fast_pskip=0 / chroma_qp_offset=-2 / threads=12 / lookahead_threads=2 / sliced_threads=0 / nr=0 / decimate=1 / interlaced=0 / bluray_compat=0 / constrained_intra=0 / fgo=0 / bframes=8 / b_pyramid=2 / b_adapt=2 / b_bias=0 / direct=1 / weightb=1 / open_gop=0 / weightp=2 / keyint=250 / keyint_min=24 / scenecut=40 / intra_refresh=0 / rc=crf / mbtree=0 / crf=17.5000 / qcomp=0.67 / qpmin=0:0:0 / qpmax=81:81:81 / qpstep=4 / ip_ratio=1.40 / pb_ratio=1.30 / aq=1:0.85 / aq-sensitivity=10.00 / aq-factor=1.00:1.00:1.00 / aq2=0 / aq3=0
  27. Language : Japanese
  28. Default : Yes
  29. Forced : No
  30. Color range : Limited
  31. Color primaries : BT.709
  32. Transfer characteristics : BT.709
  33. Matrix coefficients : BT.709
  34.  
  35. Audio #1
  36. ID : 2
  37. Format : E-AC-3
  38. Format/Info : Enhanced AC-3
  39. Commercial name : Dolby Digital Plus
  40. Muxing mode : Header stripping
  41. Codec ID : A_EAC3
  42. Duration : 24 min 1 s
  43. Bit rate mode : Constant
  44. Bit rate : 128 kb/s
  45. Channel(s) : 2 channels
  46. Channel layout : L R
  47. Sampling rate : 48.0 kHz
  48. Frame rate : 31.250 FPS (1536 SPF)
  49. Compression mode : Lossy
  50. Stream size : 22.0 MiB (4%)
  51. Title : E-AC3 2.0
  52. Language : Portuguese
  53. Service kind : Complete Main
  54. Default : Yes
  55. Forced : No
  56.  
  57. Audio #2
  58. ID : 3
  59. Format : E-AC-3
  60. Format/Info : Enhanced AC-3
  61. Commercial name : Dolby Digital Plus
  62. Muxing mode : Header stripping
  63. Codec ID : A_EAC3
  64. Duration : 24 min 1 s
  65. Bit rate mode : Constant
  66. Bit rate : 128 kb/s
  67. Channel(s) : 2 channels
  68. Channel layout : L R
  69. Sampling rate : 48.0 kHz
  70. Frame rate : 31.250 FPS (1536 SPF)
  71. Compression mode : Lossy
  72. Stream size : 22.0 MiB (4%)
  73. Title : E-AC3 2.0
  74. Language : Japanese
  75. Service kind : Complete Main
  76. Default : No
  77. Forced : No
  78.  
  79. Text
  80. ID : 4
  81. Format : UTF-8
  82. Codec ID : S_TEXT/UTF8
  83. Codec ID/Info : UTF-8 Plain Text
  84. Title : Completa
  85. Language : Portuguese
  86. Default : No
  87. Forced : No
Advertisement
RAW Paste Data Copied
Advertisement