iMN0

Nobody.2021.Hybrid.Repack.2160p.UHD.BluRay.Remux.HDR10Plus.DV.HEVC.Atmos-PmP.mkv

Jun 20th, 2021
456
Never
Not a member of Pastebin yet? Sign Up, it unlocks many cool features!
  1. General
  2. Unique ID : 29572029109090990199724174241059470098 (0x163F5D9A6F7DD9BCC2FAD9A759527B12)
  3. Complete name : Nobody.2021.Hybrid.Repack.2160p.UHD.BluRay.Remux.HDR10Plus.DV.HEVC.Atmos-PmP.mkv
  4. Format : Matroska
  5. Format version : Version 4
  6. File size : 42.0 GiB
  7. Duration : 1 h 31 min
  8. Overall bit rate mode : Variable
  9. Overall bit rate : 65.5 Mb/s
  10. Movie name : Nobody (2021)
  11. Encoded date : UTC 2021-06-20 17:00:14
  12. Writing application : mkvmerge v55.0.0 ('Waiting For Space') 64-bit
  13. Writing library : libebml v1.4.2 + libmatroska v1.6.4
  14. IMDB : tt7888964
  15. TMDB : movie/615457
  16.  
  17. Video
  18. ID : 1
  19. Format : HEVC
  20. Format/Info : High Efficiency Video Coding
  21. Format profile : Main 10@L5.1@High
  22. HDR format : Dolby Vision, Version 1.0, dvhe.07.00, EL+RPU, Blu-ray compatible / SMPTE ST 2094 App 4, Version 1, HDR10+ Profile B compatible
  23. Codec ID : V_MPEGH/ISO/HEVC
  24. Duration : 1 h 31 min
  25. Bit rate : 60.8 Mb/s
  26. Width : 3 840 pixels
  27. Height : 2 160 pixels
  28. Display aspect ratio : 16:9
  29. Frame rate mode : Constant
  30. Frame rate : 23.976 (24000/1001) FPS
  31. Color space : YUV
  32. Chroma subsampling : 4:2:0 (Type 2)
  33. Bit depth : 10 bits
  34. Bits/(Pixel*Frame) : 0.306
  35. Stream size : 38.9 GiB (93%)
  36. Title : MPEG-H HEVC Video / 54637 kbps / 2160p / 23.976 fps / 16:9 / Main 10 @ Level 5.1 @ High / 4:2:0 / 10 bits / 1000nits / HDR10+ v1 Profile B / BT.2020 / Dolby Vision FEL @ 6144 kbps
  37. Language : English
  38. Default : Yes
  39. Forced : No
  40. Color range : Limited
  41. Color primaries : BT.2020
  42. Transfer characteristics : PQ
  43. Matrix coefficients : BT.2020 non-constant
  44. Mastering display color primaries : Display P3
  45. Mastering display luminance : min: 0.0001 cd/m2, max: 1000 cd/m2
  46. Maximum Content Light Level : 959 cd/m2
  47. Maximum Frame-Average Light Level : 338 cd/m2
  48.  
  49. Audio #1
  50. ID : 2
  51. Format : MLP FBA 16-ch
  52. Format/Info : Meridian Lossless Packing FBA with 16-channel presentation
  53. Commercial name : Dolby TrueHD with Dolby Atmos
  54. Codec ID : A_TRUEHD
  55. Duration : 1 h 31 min
  56. Bit rate mode : Variable
  57. Bit rate : 2 697 kb/s
  58. Maximum bit rate : 4 788 kb/s
  59. Channel(s) : 8 channels
  60. Channel layout : L R C LFE Ls Rs Lb Rb
  61. Sampling rate : 48.0 kHz
  62. Frame rate : 1 200.000 FPS (40 SPF)
  63. Compression mode : Lossless
  64. Stream size : 1.73 GiB (4%)
  65. Title : Dolby TrueHD/Atmos Audio / 7.1+11 objects / 48 kHz / 2697 kbps / 16-bit
  66. Language : English
  67. Default : Yes
  68. Forced : No
  69. Number of dynamic objects : 11
  70. Bed channel count : 1 channel
  71. Bed channel configuration : LFE
  72.  
  73. Audio #2
  74. ID : 3
  75. Format : AC-3
  76. Format/Info : Audio Coding 3
  77. Commercial name : Dolby Digital
  78. Codec ID : A_AC3
  79. Duration : 1 h 31 min
  80. Bit rate mode : Constant
  81. Bit rate : 448 kb/s
  82. Channel(s) : 6 channels
  83. Channel layout : L R C LFE Ls Rs
  84. Sampling rate : 48.0 kHz
  85. Frame rate : 31.250 FPS (1536 SPF)
  86. Compression mode : Lossy
  87. Stream size : 294 MiB (1%)
  88. Title : Compatibility Track / Dolby Digital Audio / 5.1 / 48 kHz / 448 kbps
  89. Language : English
  90. Service kind : Complete Main
  91. Default : No
  92. Forced : No
  93.  
  94. Audio #3
  95. ID : 4
  96. Format : AC-3
  97. Format/Info : Audio Coding 3
  98. Commercial name : Dolby Digital
  99. Codec ID : A_AC3
  100. Duration : 1 h 31 min
  101. Bit rate mode : Constant
  102. Bit rate : 192 kb/s
  103. Channel(s) : 2 channels
  104. Channel layout : L R
  105. Sampling rate : 48.0 kHz
  106. Frame rate : 31.250 FPS (1536 SPF)
  107. Compression mode : Lossy
  108. Stream size : 126 MiB (0%)
  109. Title : Commentary by actor/producer Bob Odenkirk and director Ilya Naishuller
  110. Language : English
  111. Service kind : Complete Main
  112. Default : No
  113. Forced : No
  114.  
  115. Audio #4
  116. ID : 5
  117. Format : AC-3
  118. Format/Info : Audio Coding 3
  119. Commercial name : Dolby Digital
  120. Codec ID : A_AC3
  121. Duration : 1 h 31 min
  122. Bit rate mode : Constant
  123. Bit rate : 192 kb/s
  124. Channel(s) : 2 channels
  125. Channel layout : L R
  126. Sampling rate : 48.0 kHz
  127. Frame rate : 31.250 FPS (1536 SPF)
  128. Compression mode : Lossy
  129. Stream size : 126 MiB (0%)
  130. Title : Commentary by director Ilya Naishuller
  131. Language : English
  132. Service kind : Complete Main
  133. Default : No
  134. Forced : No
  135.  
  136. Text #1
  137. ID : 6
  138. Format : PGS
  139. Codec ID : S_HDMV/PGS
  140. Codec ID/Info : Picture based subtitle format used on BDs/HD-DVDs
  141. Duration : 50 min 23 s
  142. Bit rate : 1 772 b/s
  143. Count of elements : 134
  144. Stream size : 654 KiB (0%)
  145. Title : Forced for non-English dialogue
  146. Language : English
  147. Default : Yes
  148. Forced : Yes
  149.  
  150. Text #2
  151. ID : 7
  152. Format : PGS
  153. Codec ID : S_HDMV/PGS
  154. Codec ID/Info : Picture based subtitle format used on BDs/HD-DVDs
  155. Duration : 1 h 28 min
  156. Bit rate : 29.9 kb/s
  157. Count of elements : 2284
  158. Stream size : 18.9 MiB (0%)
  159. Title : SDH
  160. Language : English
  161. Default : No
  162. Forced : No
  163.  
  164. Text #3
  165. ID : 8
  166. Format : PGS
  167. Codec ID : S_HDMV/PGS
  168. Codec ID/Info : Picture based subtitle format used on BDs/HD-DVDs
  169. Duration : 1 h 30 min
  170. Bit rate : 13.8 kb/s
  171. Count of elements : 1622
  172. Stream size : 8.93 MiB (0%)
  173. Title : Traditional / Hong Kong
  174. Language : Chinese
  175. Default : No
  176. Forced : No
  177.  
  178. Text #4
  179. ID : 9
  180. Format : PGS
  181. Codec ID : S_HDMV/PGS
  182. Codec ID/Info : Picture based subtitle format used on BDs/HD-DVDs
  183. Duration : 1 h 30 min
  184. Bit rate : 13.0 kb/s
  185. Count of elements : 1610
  186. Stream size : 8.41 MiB (0%)
  187. Title : Traditional / Taiwan
  188. Language : Chinese
  189. Default : No
  190. Forced : No
  191.  
  192. Text #5
  193. ID : 10
  194. Format : PGS
  195. Codec ID : S_HDMV/PGS
  196. Codec ID/Info : Picture based subtitle format used on BDs/HD-DVDs
  197. Duration : 1 h 31 min
  198. Bit rate : 15.2 kb/s
  199. Count of elements : 1092
  200. Stream size : 9.92 MiB (0%)
  201. Language : Croatian
  202. Default : No
  203. Forced : No
  204.  
  205. Text #6
  206. ID : 11
  207. Format : PGS
  208. Codec ID : S_HDMV/PGS
  209. Codec ID/Info : Picture based subtitle format used on BDs/HD-DVDs
  210. Duration : 1 h 30 min
  211. Bit rate : 17.7 kb/s
  212. Count of elements : 1598
  213. Stream size : 11.4 MiB (0%)
  214. Language : Czech
  215. Default : No
  216. Forced : No
  217.  
  218. Text #7
  219. ID : 12
  220. Format : PGS
  221. Codec ID : S_HDMV/PGS
  222. Codec ID/Info : Picture based subtitle format used on BDs/HD-DVDs
  223. Duration : 1 h 29 min
  224. Bit rate : 18.1 kb/s
  225. Count of elements : 1234
  226. Stream size : 11.6 MiB (0%)
  227. Language : Danish
  228. Default : No
  229. Forced : No
  230.  
  231. Text #8
  232. ID : 13
  233. Format : PGS
  234. Codec ID : S_HDMV/PGS
  235. Codec ID/Info : Picture based subtitle format used on BDs/HD-DVDs
  236. Duration : 1 h 29 min
  237. Bit rate : 17.8 kb/s
  238. Count of elements : 1132
  239. Stream size : 11.4 MiB (0%)
  240. Language : Dutch
  241. Default : No
  242. Forced : No
  243.  
  244. Text #9
  245. ID : 14
  246. Format : PGS
  247. Codec ID : S_HDMV/PGS
  248. Codec ID/Info : Picture based subtitle format used on BDs/HD-DVDs
  249. Duration : 1 h 29 min
  250. Bit rate : 17.7 kb/s
  251. Count of elements : 1536
  252. Stream size : 11.4 MiB (0%)
  253. Language : Estonian
  254. Default : No
  255. Forced : No
  256.  
  257. Text #10
  258. ID : 15
  259. Format : PGS
  260. Codec ID : S_HDMV/PGS
  261. Codec ID/Info : Picture based subtitle format used on BDs/HD-DVDs
  262. Duration : 1 h 29 min
  263. Bit rate : 16.0 kb/s
  264. Count of elements : 1244
  265. Stream size : 10.3 MiB (0%)
  266. Language : Finnish
  267. Default : No
  268. Forced : No
  269.  
  270. Text #11
  271. ID : 16
  272. Format : PGS
  273. Codec ID : S_HDMV/PGS
  274. Codec ID/Info : Picture based subtitle format used on BDs/HD-DVDs
  275. Duration : 1 h 29 min
  276. Bit rate : 17.4 kb/s
  277. Count of elements : 1516
  278. Stream size : 11.2 MiB (0%)
  279. Title : Parisian
  280. Language : French
  281. Default : No
  282. Forced : No
  283.  
  284. Text #12
  285. ID : 17
  286. Format : PGS
  287. Codec ID : S_HDMV/PGS
  288. Codec ID/Info : Picture based subtitle format used on BDs/HD-DVDs
  289. Duration : 1 h 29 min
  290. Bit rate : 20.2 kb/s
  291. Count of elements : 1536
  292. Stream size : 13.0 MiB (0%)
  293. Language : German
  294. Default : No
  295. Forced : No
  296.  
  297. Text #13
  298. ID : 18
  299. Format : PGS
  300. Codec ID : S_HDMV/PGS
  301. Codec ID/Info : Picture based subtitle format used on BDs/HD-DVDs
  302. Duration : 1 h 29 min
  303. Bit rate : 20.9 kb/s
  304. Count of elements : 1544
  305. Stream size : 13.4 MiB (0%)
  306. Language : Greek
  307. Default : No
  308. Forced : No
  309.  
  310. Text #14
  311. ID : 19
  312. Format : PGS
  313. Codec ID : S_HDMV/PGS
  314. Codec ID/Info : Picture based subtitle format used on BDs/HD-DVDs
  315. Duration : 1 h 29 min
  316. Bit rate : 19.2 kb/s
  317. Count of elements : 1544
  318. Stream size : 12.3 MiB (0%)
  319. Language : Hungarian
  320. Default : No
  321. Forced : No
  322.  
  323. Text #15
  324. ID : 20
  325. Format : PGS
  326. Codec ID : S_HDMV/PGS
  327. Codec ID/Info : Picture based subtitle format used on BDs/HD-DVDs
  328. Duration : 1 h 29 min
  329. Bit rate : 18.3 kb/s
  330. Count of elements : 1402
  331. Stream size : 11.8 MiB (0%)
  332. Language : Italian
  333. Default : No
  334. Forced : No
  335.  
  336. Text #16
  337. ID : 21
  338. Format : PGS
  339. Codec ID : S_HDMV/PGS
  340. Codec ID/Info : Picture based subtitle format used on BDs/HD-DVDs
  341. Duration : 1 h 31 min
  342. Bit rate : 14.2 kb/s
  343. Count of elements : 1952
  344. Stream size : 9.30 MiB (0%)
  345. Language : Korean
  346. Default : No
  347. Forced : No
  348.  
  349. Text #17
  350. ID : 22
  351. Format : PGS
  352. Codec ID : S_HDMV/PGS
  353. Codec ID/Info : Picture based subtitle format used on BDs/HD-DVDs
  354. Duration : 1 h 29 min
  355. Bit rate : 15.9 kb/s
  356. Count of elements : 1328
  357. Stream size : 10.2 MiB (0%)
  358. Language : Latvian
  359. Default : No
  360. Forced : No
  361.  
  362. Text #18
  363. ID : 23
  364. Format : PGS
  365. Codec ID : S_HDMV/PGS
  366. Codec ID/Info : Picture based subtitle format used on BDs/HD-DVDs
  367. Duration : 1 h 30 min
  368. Bit rate : 18.3 kb/s
  369. Count of elements : 1608
  370. Stream size : 11.8 MiB (0%)
  371. Language : Lithuanian
  372. Default : No
  373. Forced : No
  374.  
  375. Text #19
  376. ID : 24
  377. Format : PGS
  378. Codec ID : S_HDMV/PGS
  379. Codec ID/Info : Picture based subtitle format used on BDs/HD-DVDs
  380. Duration : 1 h 30 min
  381. Bit rate : 15.8 kb/s
  382. Count of elements : 1418
  383. Stream size : 10.2 MiB (0%)
  384. Language : Norwegian
  385. Default : No
  386. Forced : No
  387.  
  388. Text #20
  389. ID : 25
  390. Format : PGS
  391. Codec ID : S_HDMV/PGS
  392. Codec ID/Info : Picture based subtitle format used on BDs/HD-DVDs
  393. Duration : 1 h 29 min
  394. Bit rate : 18.0 kb/s
  395. Count of elements : 1528
  396. Stream size : 11.6 MiB (0%)
  397. Language : Polish
  398. Default : No
  399. Forced : No
  400.  
  401. Text #21
  402. ID : 26
  403. Format : PGS
  404. Codec ID : S_HDMV/PGS
  405. Codec ID/Info : Picture based subtitle format used on BDs/HD-DVDs
  406. Duration : 1 h 30 min
  407. Bit rate : 20.1 kb/s
  408. Count of elements : 1598
  409. Stream size : 12.9 MiB (0%)
  410. Title : Brazilian
  411. Language : Portuguese
  412. Default : No
  413. Forced : No
  414.  
  415. Text #22
  416. ID : 27
  417. Format : PGS
  418. Codec ID : S_HDMV/PGS
  419. Codec ID/Info : Picture based subtitle format used on BDs/HD-DVDs
  420. Duration : 1 h 29 min
  421. Bit rate : 18.4 kb/s
  422. Count of elements : 1530
  423. Stream size : 11.8 MiB (0%)
  424. Title : Iberian
  425. Language : Portuguese
  426. Default : No
  427. Forced : No
  428.  
  429. Text #23
  430. ID : 28
  431. Format : PGS
  432. Codec ID : S_HDMV/PGS
  433. Codec ID/Info : Picture based subtitle format used on BDs/HD-DVDs
  434. Duration : 1 h 29 min
  435. Bit rate : 16.7 kb/s
  436. Count of elements : 1414
  437. Stream size : 10.7 MiB (0%)
  438. Language : Romanian
  439. Default : No
  440. Forced : No
  441.  
  442. Text #24
  443. ID : 29
  444. Format : PGS
  445. Codec ID : S_HDMV/PGS
  446. Codec ID/Info : Picture based subtitle format used on BDs/HD-DVDs
  447. Duration : 1 h 31 min
  448. Bit rate : 14.4 kb/s
  449. Count of elements : 1022
  450. Stream size : 9.38 MiB (0%)
  451. Language : Slovenian
  452. Default : No
  453. Forced : No
  454.  
  455. Text #25
  456. ID : 30
  457. Format : PGS
  458. Codec ID : S_HDMV/PGS
  459. Codec ID/Info : Picture based subtitle format used on BDs/HD-DVDs
  460. Duration : 1 h 30 min
  461. Bit rate : 23.1 kb/s
  462. Count of elements : 1870
  463. Stream size : 14.9 MiB (0%)
  464. Title : Castilian
  465. Language : Spanish
  466. Default : No
  467. Forced : No
  468.  
  469. Text #26
  470. ID : 31
  471. Format : PGS
  472. Codec ID : S_HDMV/PGS
  473. Codec ID/Info : Picture based subtitle format used on BDs/HD-DVDs
  474. Duration : 1 h 30 min
  475. Bit rate : 19.8 kb/s
  476. Count of elements : 1572
  477. Stream size : 12.8 MiB (0%)
  478. Title : Latin American
  479. Language : Spanish
  480. Default : No
  481. Forced : No
  482.  
  483. Text #27
  484. ID : 32
  485. Format : PGS
  486. Codec ID : S_HDMV/PGS
  487. Codec ID/Info : Picture based subtitle format used on BDs/HD-DVDs
  488. Duration : 1 h 29 min
  489. Bit rate : 16.8 kb/s
  490. Count of elements : 1092
  491. Stream size : 10.8 MiB (0%)
  492. Language : Swedish
  493. Default : No
  494. Forced : No
  495.  
  496. Text #28
  497. ID : 33
  498. Format : PGS
  499. Codec ID : S_HDMV/PGS
  500. Codec ID/Info : Picture based subtitle format used on BDs/HD-DVDs
  501. Duration : 1 h 29 min
  502. Bit rate : 14.8 kb/s
  503. Count of elements : 1574
  504. Stream size : 9.54 MiB (0%)
  505. Language : Thai
  506. Default : No
  507. Forced : No
  508.  
  509. Text #29
  510. ID : 34
  511. Format : PGS
  512. Codec ID : S_HDMV/PGS
  513. Codec ID/Info : Picture based subtitle format used on BDs/HD-DVDs
  514. Duration : 1 h 30 min
  515. Bit rate : 72.5 kb/s
  516. Count of elements : 3203
  517. Stream size : 47.0 MiB (0%)
  518. Title : Commentary #1
  519. Language : English
  520. Default : No
  521. Forced : No
  522.  
  523. Text #30
  524. ID : 35
  525. Format : PGS
  526. Codec ID : S_HDMV/PGS
  527. Codec ID/Info : Picture based subtitle format used on BDs/HD-DVDs
  528. Duration : 1 h 31 min
  529. Bit rate : 59.6 kb/s
  530. Count of elements : 3227
  531. Stream size : 39.0 MiB (0%)
  532. Title : Commentary #1
  533. Language : French
  534. Default : No
  535. Forced : No
  536.  
  537. Text #31
  538. ID : 36
  539. Format : PGS
  540. Codec ID : S_HDMV/PGS
  541. Codec ID/Info : Picture based subtitle format used on BDs/HD-DVDs
  542. Duration : 1 h 31 min
  543. Bit rate : 61.7 kb/s
  544. Count of elements : 3216
  545. Stream size : 40.4 MiB (0%)
  546. Title : Commentary #1
  547. Language : German
  548. Default : No
  549. Forced : No
  550.  
  551. Text #32
  552. ID : 37
  553. Format : PGS
  554. Codec ID : S_HDMV/PGS
  555. Codec ID/Info : Picture based subtitle format used on BDs/HD-DVDs
  556. Duration : 1 h 31 min
  557. Bit rate : 64.2 kb/s
  558. Count of elements : 3220
  559. Stream size : 42.0 MiB (0%)
  560. Title : Commentary #1
  561. Language : Italian
  562. Default : No
  563. Forced : No
  564.  
  565. Text #33
  566. ID : 38
  567. Format : PGS
  568. Codec ID : S_HDMV/PGS
  569. Codec ID/Info : Picture based subtitle format used on BDs/HD-DVDs
  570. Duration : 1 h 31 min
  571. Bit rate : 62.5 kb/s
  572. Count of elements : 3220
  573. Stream size : 40.9 MiB (0%)
  574. Title : Commentary #1
  575. Language : Spanish
  576. Default : No
  577. Forced : No
  578.  
  579. Text #34
  580. ID : 39
  581. Format : PGS
  582. Codec ID : S_HDMV/PGS
  583. Codec ID/Info : Picture based subtitle format used on BDs/HD-DVDs
  584. Duration : 1 h 31 min
  585. Bit rate : 78.7 kb/s
  586. Count of elements : 3290
  587. Stream size : 51.5 MiB (0%)
  588. Title : Commentary #2
  589. Language : English
  590. Default : No
  591. Forced : No
  592.  
  593. Text #35
  594. ID : 40
  595. Format : PGS
  596. Codec ID : S_HDMV/PGS
  597. Codec ID/Info : Picture based subtitle format used on BDs/HD-DVDs
  598. Duration : 1 h 31 min
  599. Bit rate : 70.5 kb/s
  600. Count of elements : 3300
  601. Stream size : 46.1 MiB (0%)
  602. Title : Commentary #2
  603. Language : French
  604. Default : No
  605. Forced : No
  606.  
  607. Text #36
  608. ID : 41
  609. Format : PGS
  610. Codec ID : S_HDMV/PGS
  611. Codec ID/Info : Picture based subtitle format used on BDs/HD-DVDs
  612. Duration : 1 h 31 min
  613. Bit rate : 70.4 kb/s
  614. Count of elements : 3296
  615. Stream size : 46.1 MiB (0%)
  616. Title : Commentary #2
  617. Language : German
  618. Default : No
  619. Forced : No
  620.  
  621. Text #37
  622. ID : 42
  623. Format : PGS
  624. Codec ID : S_HDMV/PGS
  625. Codec ID/Info : Picture based subtitle format used on BDs/HD-DVDs
  626. Duration : 1 h 31 min
  627. Bit rate : 66.2 kb/s
  628. Count of elements : 3298
  629. Stream size : 43.3 MiB (0%)
  630. Title : Commentary #2
  631. Language : Italian
  632. Default : No
  633. Forced : No
  634.  
  635. Text #38
  636. ID : 43
  637. Format : PGS
  638. Codec ID : S_HDMV/PGS
  639. Codec ID/Info : Picture based subtitle format used on BDs/HD-DVDs
  640. Duration : 1 h 31 min
  641. Bit rate : 74.2 kb/s
  642. Count of elements : 3304
  643. Stream size : 48.5 MiB (0%)
  644. Title : Commentary #2
  645. Language : Spanish
  646. Default : No
  647. Forced : No
  648.  
  649. Menu
  650. 00:00:00.000 : en:Just a Nobody
  651. 00:02:04.249 : en:Suburban Life
  652. 00:09:01.540 : en:Paternal Inadequacy
  653. 00:15:02.693 : en:Covert Counseling
  654. 00:19:18.198 : en:Seeking Revenge
  655. 00:24:56.286 : en:One Door Opens
  656. 00:32:15.933 : en:Reminiscing the Past
  657. 00:35:37.468 : en:Yulian
  658. 00:40:01.065 : en:Enraged Sibling
  659. 00:43:43.203 : en:Visiting the Barber
  660. 00:47:29.221 : en:Vengeful Intrusion
  661. 00:50:56.636 : en:Trunk Awakening
  662. 00:54:46.783 : en:Trust Me
  663. 00:57:32.073 : en:Basement Confession
  664. 01:04:16.686 : en:New Management
  665. 01:06:54.844 : en:Storming Obshak
  666. 01:08:59.802 : en:Came for the Show
  667. 01:13:20.646 : en:Chasing Revenge
  668. 01:15:26.355 : en:Last Stand
  669. 01:21:05.569 : en:Everybody Dies
  670. 01:24:06.499 : en:Not Much of an Answer
  671. 01:26:16.963 : en:End Credits
RAW Paste Data