GrabHD

Untitled

Mar 15th, 2020
194
Never
Not a member of Pastebin yet? Sign Up, it unlocks many cool features!
  1. Источник: 1917.2019.BluRay.1080p.x264-CHD
  2. General
  3. Unique ID : 215787086701111605165909741966594733195 (0xA25714C8CCFACA1A82E4E0993EB8F48B)
  4. Complete name : 1917.2019.BDRip.1080p-CHD.mkv
  5. Format : Matroska
  6. Format version : Version 4
  7. File size : 12.8 GiB
  8. Duration : 1 h 58 min
  9. Overall bit rate : 15.4 Mb/s
  10. Movie name : CHD
  11. Encoded date : UTC 2020-03-14 09:01:36
  12. Writing application : mkvmerge v7.1.0 ('Good Love') 64bit built on Jul 27 2014 13:06:55
  13. Writing library : libebml v1.3.0 + libmatroska v1.4.1
  14.  
  15. Video
  16. ID : 1
  17. Format : AVC
  18. Format/Info : Advanced Video Codec
  19. Format profile : High@L4.1
  20. Format settings : CABAC / 4 Ref Frames
  21. Format settings, CABAC : Yes
  22. Format settings, Reference fra : 4 frames
  23. Codec ID : V_MPEG4/ISO/AVC
  24. Duration : 1 h 58 min
  25. Bit rate : 13.3 Mb/s
  26. Width : 1 920 pixels
  27. Height : 800 pixels
  28. Display aspect ratio : 2.40:1
  29. Frame rate mode : Constant
  30. Frame rate : 23.976 (24000/1001) FPS
  31. Color space : YUV
  32. Chroma subsampling : 4:2:0
  33. Bit depth : 8 bits
  34. Scan type : Progressive
  35. Bits/(Pixel*Frame) : 0.362
  36. Stream size : 11.1 GiB (86%)
  37. Writing library : x264 core 157 r2867+150 7e91e0e t_mod_Custom_2 [8-bit@all X86_64]
  38. Encoding settings : cabac=1 / ref=4 / deblock=1:-3:-3 / analyse=0x3:0x133 / me=umh / subme=11 / psy=1 / fade_compensate=0.00 / psy_rd=0.90:0.10 / mixed_ref=1 / me_range=64 / chroma_me=1 / trellis=2 / 8x8dct=1 / cqm=0 / deadzone=21,11 / fast_pskip=0 / chroma_qp_offset=-4 / threads=25 / lookahead_threads=4 / sliced_threads=0 / nr=0 / decimate=1 / interlaced=0 / bluray_compat=0 / constrained_intra=0 / fgo=0 / bframes=8 / b_pyramid=2 / b_adapt=2 / b_bias=0 / direct=3 / weightb=1 / open_gop=0 / weightp=2 / keyint=250 / keyint_min=23 / scenecut=40 / intra_refresh=0 / rc_lookahead=60 / rc=crf / mbtree=0 / crf=17.0000 / qcomp=0.70 / qpmin=0:0:0 / qpmax=69:69:69 / qpstep=4 / vbv_maxrate=35000 / vbv_bufsize=35000 / crf_max=0.0 / nal_hrd=none / filler=0 / ip_ratio=1.40 / pb_ratio=1.30 / aq=3:1.00 / aq-sensitivity=10.00 / aq-factor=1.00:1.00:1.00 / aq2=0 / aq3=0
  39. Language : English
  40. Default : Yes
  41. Forced : No
  42.  
  43. Audio #1
  44. ID : 2
  45. Format : AC-3
  46. Format/Info : Audio Coding 3
  47. Commercial name : Dolby Digital
  48. Codec ID : A_AC3
  49. Duration : 1 h 58 min
  50. Bit rate mode : Constant
  51. Bit rate : 192 kb/s
  52. Channel(s) : 2 channels
  53. Channel layout : L R
  54. Sampling rate : 48.0 kHz
  55. Frame rate : 31.250 FPS (1536 SPF)
  56. Compression mode : Lossy
  57. Stream size : 163 MiB (1%)
  58. Title : MVO | HDRezka Studio
  59. Language : Russian
  60. Service kind : Complete Main
  61. Default : Yes
  62. Forced : No
  63.  
  64. Audio #2
  65. ID : 3
  66. Format : AC-3
  67. Format/Info : Audio Coding 3
  68. Commercial name : Dolby Digital
  69. Codec ID : A_AC3
  70. Duration : 1 h 58 min
  71. Bit rate mode : Constant
  72. Bit rate : 384 kb/s
  73. Channel(s) : 6 channels
  74. Channel layout : L R C LFE Ls Rs
  75. Sampling rate : 48.0 kHz
  76. Frame rate : 31.250 FPS (1536 SPF)
  77. Compression mode : Lossy
  78. Stream size : 327 MiB (2%)
  79. Title : zamez
  80. Language : Russian
  81. Service kind : Complete Main
  82. Default : No
  83. Forced : No
  84.  
  85. Audio #3
  86. ID : 4
  87. Format : DTS
  88. Format/Info : Digital Theater Systems
  89. Codec ID : A_DTS
  90. Duration : 1 h 58 min
  91. Bit rate mode : Constant
  92. Bit rate : 1 509 kb/s
  93. Channel(s) : 6 channels
  94. Channel layout : C L R Ls Rs LFE
  95. Sampling rate : 48.0 kHz
  96. Frame rate : 93.750 FPS (512 SPF)
  97. Bit depth : 24 bits
  98. Compression mode : Lossy
  99. Stream size : 1.25 GiB (10%)
  100. Language : English
  101. Default : No
  102. Forced : No
  103.  
  104. Text #1
  105. ID : 5
  106. Format : UTF-8
  107. Codec ID : S_TEXT/UTF8
  108. Codec ID/Info : UTF-8 Plain Text
  109. Duration : 1 h 49 min
  110. Bit rate : 57 b/s
  111. Count of elements : 837
  112. Stream size : 45.7 KiB (0%)
  113. Language : Russian
  114. Default : No
  115. Forced : No
  116.  
  117. Text #2
  118. ID : 6
  119. Format : UTF-8
  120. Codec ID : S_TEXT/UTF8
  121. Codec ID/Info : UTF-8 Plain Text
  122. Duration : 1 h 45 min
  123. Bit rate : 35 b/s
  124. Count of elements : 937
  125. Stream size : 27.1 KiB (0%)
  126. Language : English
  127. Default : No
  128. Forced : No
  129.  
  130. Text #3
  131. ID : 7
  132. Format : PGS
  133. Muxing mode : zlib
  134. Codec ID : S_HDMV/PGS
  135. Codec ID/Info : Picture based subtitle format used on BDs/HD-DVDs
  136. Duration : 1 h 45 min
  137. Bit rate : 13.9 kb/s
  138. Count of elements : 2202
  139. Stream size : 10.5 MiB (0%)
  140. Title : PGS
  141. Language : English
  142. Default : No
  143. Forced : No
  144.  
  145. Menu
  146. 00:00:00.000 : en:00:00:00.000
  147. 00:04:59.424 : en:00:04:59.424
  148. 00:08:19.374 : en:00:08:19.374
  149. 00:13:26.639 : en:00:13:26.639
  150. 00:16:38.789 : en:00:16:38.789
  151. 00:23:32.494 : en:00:23:32.494
  152. 00:30:28.660 : en:00:30:28.660
  153. 00:35:34.549 : en:00:35:34.549
  154. 00:42:25.376 : en:00:42:25.376
  155. 00:51:34.091 : en:00:51:34.091
  156. 00:56:36.310 : en:00:56:36.310
  157. 01:02:29.079 : en:01:02:29.079
  158. 01:06:33.573 : en:01:06:33.573
  159. 01:12:04.320 : en:01:12:04.320
  160. 01:19:45.197 : en:01:19:45.197
  161. 01:28:47.822 : en:01:28:47.822
  162. 01:33:43.451 : en:01:33:43.451
  163. 01:38:11.594 : en:01:38:11.594
  164. 01:41:43.681 : en:01:41:43.681
  165. 01:49:46.580 : en:01:49:46.580
RAW Paste Data