Interfilm

Untitled

Jun 8th, 2014
203
Never
Not a member of Pastebin yet? Sign Up, it unlocks many cool features!
  1. Общее
  2. Уникальный идентификатор : 254591318759473822003378720089978373009 (0xBF888122D920AE938964F7F1ED630391)
  3. Полное имя : C:\Users\Андрей\Desktop\R100.2013.1080p.BluRay.DTS.x264-PublicHD (от Паши Ап)\R100.2013.720p.BluRay.x264-PublicHD.mkv
  4. Формат : Matroska
  5. Версия формата : Version 4 / Version 2
  6. Размер файла : 4,36 Гбайт
  7. Продолжительность : 1 ч. 39 м.
  8. Общий поток : 6291 Кбит/сек
  9. Дата кодирования : UTC 2014-04-14 17:54:49
  10. Программа кодирования : mkvmerge v6.8.0 ('Theme for Great Cities') 64bit built on Mar 2 2014 21:34:26
  11. Библиотека кодирования : libebml v1.3.0 + libmatroska v1.4.1
  12.  
  13. Видео
  14. Идентификатор : 1
  15. Формат : AVC
  16. Формат/Информация : Advanced Video Codec
  17. Профиль формата : High@L4.1
  18. Параметр CABAC формата : Да
  19. Параметр ReFrames формата : 5 кадров
  20. Идентификатор кодека : V_MPEG4/ISO/AVC
  21. Продолжительность : 1 ч. 39 м.
  22. Битрейт : 5526 Кбит/сек
  23. Ширина : 1280 пикселей
  24. Высота : 690 пикселей
  25. Соотношение сторон : 1,85:1
  26. Режим частоты кадров : Постоянный
  27. Частота кадров : 23,976 кадра/сек
  28. Цветовое пространство : YUV
  29. Субдискретизация насыщенности : 4:2:0
  30. Битовая глубина : 8 бит
  31. Тип развёртки : Прогрессивная
  32. Бит/(Пиксели*Кадры) : 0.261
  33. Размер потока : 3,83 Гбайт (88%)
  34. Язык : English
  35. Default : Да
  36. Forced : Нет
  37.  
  38. Аудио
  39. Идентификатор : 2
  40. Формат : AC-3
  41. Формат/Информация : Audio Coding 3
  42. Расширение режима : CM (complete main)
  43. Параметр Endianness формата : Big
  44. Идентификатор кодека : A_AC3
  45. Продолжительность : 1 ч. 39 м.
  46. Вид битрейта : Постоянный
  47. Битрейт : 640 Кбит/сек
  48. Каналы : 6 каналов
  49. Расположение каналов : Front: L C R, Side: L R, LFE
  50. Частота : 48,0 КГц
  51. Битовая глубина : 16 бит
  52. Метод сжатия : С потерями
  53. Размер потока : 455 Мбайт (10%)
  54. Язык : Japanese
  55. Default : Да
  56. Forced : Нет
  57.  
  58. Текст #1
  59. Идентификатор : 3
  60. Формат : UTF-8
  61. Идентификатор кодека : S_TEXT/UTF8
  62. Идентификатор кодека/Информация : UTF-8 Plain Text
  63. Язык : English
  64. Default : Да
  65. Forced : Нет
  66.  
  67. Текст #2
  68. Идентификатор : 4
  69. Формат : VobSub
  70. Режим смешивания : zlib
  71. Идентификатор кодека : S_VOBSUB
  72. Идентификатор кодека/Информация : The same subtitle format used on DVDs
  73. Язык : English
  74. Default : Нет
  75. Forced : Нет
  76.  
  77. Меню
  78. 00:00:00.000 : en:00:00:00.000
  79. 00:00:31.031 : en:00:00:31.031
  80. 00:06:06.950 : en:00:06:06.950
  81. 00:12:36.172 : en:00:12:36.172
  82. 00:17:48.734 : en:00:17:48.734
  83. 00:22:03.155 : en:00:22:03.155
  84. 00:25:34.616 : en:00:25:34.616
  85. 00:29:54.543 : en:00:29:54.543
  86. 00:38:04.240 : en:00:38:04.240
  87. 00:41:47.880 : en:00:41:47.880
  88. 00:45:40.321 : en:00:45:40.321
  89. 00:49:32.052 : en:00:49:32.052
  90. 00:52:41.992 : en:00:52:41.992
  91. 01:03:37.480 : en:01:03:37.480
  92. 01:09:35.338 : en:01:09:35.338
  93. 01:11:21.486 : en:01:11:21.486
  94. 01:15:55.885 : en:01:15:55.885
  95. 01:21:45.484 : en:01:21:45.484
  96. 01:34:20.196 : en:01:34:20.196
RAW Paste Data